  0
SECTION
  2
HEADER
  9
$ACADVER
  1
AC1021
  9
$ACADMAINTVER
 70
    25
  9
$DWGCODEPAGE
  3
ANSI_1252
  9
$INSBASE
 10
0.0
 20
0.0
 30
0.0
  9
$EXTMIN
 10
-1764.433352481246
 20
-775.127629
 30
0.0
  9
$EXTMAX
 10
2792.211869996217
 20
2235.60062
 30
0.0
  9
$LIMMIN
 10
-1764.433352481245
 20
-880.6986841637488
  9
$LIMMAX
 10
2792.211869996217
 20
2341.171675163749
  9
$ORTHOMODE
 70
     0
  9
$REGENMODE
 70
     1
  9
$FILLMODE
 70
     1
  9
$QTEXTMODE
 70
     0
  9
$MIRRTEXT
 70
     1
  9
$LTSCALE
 40
1.0
  9
$ATTMODE
 70
     0
  9
$TEXTSIZE
 40
55.88312149047852
  9
$TRACEWID
 40
1.0
  9
$TEXTSTYLE
  7
Standard
  9
$CLAYER
  8
0
  9
$CELTYPE
  6
ByLayer
  9
$CECOLOR
 62
     7
  9
$CELTSCALE
 40
1.0
  9
$DISPSILH
 70
     0
  9
$DIMSCALE
 40
1.0
  9
$DIMASZ
 40
15.0
  9
$DIMEXO
 40
5.0
  9
$DIMDLI
 40
37.5
  9
$DIMRND
 40
2.0
  9
$DIMDLE
 40
0.0
  9
$DIMEXE
 40
10.0
  9
$DIMTP
 40
0.0
  9
$DIMTM
 40
0.0
  9
$DIMTXT
 40
23.31002338461539
  9
$DIMCEN
 40
0.09
  9
$DIMTSZ
 40
0.0
  9
$DIMTOL
 70
     0
  9
$DIMLIM
 70
     0
  9
$DIMTIH
 70
     1
  9
$DIMTOH
 70
     1
  9
$DIMSE1
 70
     0
  9
$DIMSE2
 70
     0
  9
$DIMTAD
 70
     1
  9
$DIMZIN
 70
     8
  9
$DIMBLK
  1

  9
$DIMASO
 70
     1
  9
$DIMSHO
 70
     1
  9
$DIMPOST
  1

  9
$DIMAPOST
  1

  9
$DIMALT
 70
     0
  9
$DIMALTD
 70
     2
  9
$DIMALTF
 40
25.4
  9
$DIMLFAC
 40
1.0
  9
$DIMTOFL
 70
     1
  9
$DIMTVP
 40
0.0
  9
$DIMTIX
 70
     1
  9
$DIMSOXD
 70
     0
  9
$DIMSAH
 70
     0
  9
$DIMBLK1
  1

  9
$DIMBLK2
  1

  9
$DIMSTYLE
  2
Standard
  9
$DIMCLRD
 70
     7
  9
$DIMCLRE
 70
     7
  9
$DIMCLRT
 70
     7
  9
$DIMTFAC
 40
1.0
  9
$DIMGAP
 40
10.0
  9
$DIMJUST
 70
     0
  9
$DIMSD1
 70
     0
  9
$DIMSD2
 70
     0
  9
$DIMTOLJ
 70
     1
  9
$DIMTZIN
 70
     0
  9
$DIMALTZ
 70
     1
  9
$DIMALTTZ
 70
     0
  9
$DIMUPT
 70
     0
  9
$DIMDEC
 70
     4
  9
$DIMTDEC
 70
     4
  9
$DIMALTU
 70
     2
  9
$DIMALTTD
 70
     2
  9
$DIMTXSTY
  7
Standard
  9
$DIMAUNIT
 70
     0
  9
$DIMADEC
 70
     0
  9
$DIMALTRND
 40
0.0
  9
$DIMAZIN
 70
     0
  9
$DIMDSEP
 70
    46
  9
$DIMATFIT
 70
     3
  9
$DIMFRAC
 70
     0
  9
$DIMLDRBLK
  1

  9
$DIMLUNIT
 70
     2
  9
$DIMLWD
 70
    -2
  9
$DIMLWE
 70
    -2
  9
$DIMTMOVE
 70
     0
  9
$DIMFXL
 40
1.0
  9
$DIMFXLON
 70
     0
  9
$DIMJOGANG
 40
0.7853981633974483
  9
$DIMTFILL
 70
     0
  9
$DIMTFILLCLR
 70
     0
  9
$DIMARCSYM
 70
     0
  9
$DIMLTYPE
  6

  9
$DIMLTEX1
  6

  9
$DIMLTEX2
  6

  9
$LUNITS
 70
     2
  9
$LUPREC
 70
     2
  9
$SKETCHINC
 40
1.0
  9
$FILLETRAD
 40
5.0
  9
$AUNITS
 70
     0
  9
$AUPREC
 70
     2
  9
$MENU
  1
.
  9
$ELEVATION
 40
0.0
  9
$PELEVATION
 40
0.0
  9
$THICKNESS
 40
0.0
  9
$LIMCHECK
 70
     0
  9
$CHAMFERA
 40
0.5
  9
$CHAMFERB
 40
0.5
  9
$CHAMFERC
 40
1.0
  9
$CHAMFERD
 40
0.0
  9
$SKPOLY
 70
     0
  9
$TDCREATE
 40
2455394.777303438
  9
$TDUCREATE
 40
2455394.402303438
  9
$TDUPDATE
 40
2455394.777303449
  9
$TDUUPDATE
 40
2455394.402303449
  9
$TDINDWG
 40
0.0
  9
$TDUSRTIMER
 40
0.0
  9
$USRTIMER
 70
     1
  9
$ANGBASE
 50
0.0
  9
$ANGDIR
 70
     0
  9
$PDMODE
 70
     0
  9
$PDSIZE
 40
0.0
  9
$PLINEWID
 40
0.0
  9
$SPLFRAME
 70
     0
  9
$SPLINETYPE
 70
     5
  9
$SPLINESEGS
 70
    20
  9
$HANDSEED
  5
3A3
  9
$SURFTAB1
 70
     6
  9
$SURFTAB2
 70
     6
  9
$SURFTYPE
 70
     6
  9
$SURFU
 70
     6
  9
$SURFV
 70
     6
  9
$UCSBASE
  2

  9
$UCSNAME
  2

  9
$UCSORG
 10
0.0
 20
0.0
 30
0.0
  9
$UCSXDIR
 10
1.0
 20
0.0
 30
0.0
  9
$UCSYDIR
 10
0.0
 20
1.0
 30
0.0
  9
$UCSORTHOREF
  2

  9
$UCSORTHOVIEW
 70
     0
  9
$UCSORGTOP
 10
0.0
 20
0.0
 30
0.0
  9
$UCSORGBOTTOM
 10
0.0
 20
0.0
 30
0.0
  9
$UCSORGLEFT
 10
0.0
 20
0.0
 30
0.0
  9
$UCSORGRIGHT
 10
0.0
 20
0.0
 30
0.0
  9
$UCSORGFRONT
 10
0.0
 20
0.0
 30
0.0
  9
$UCSORGBACK
 10
0.0
 20
0.0
 30
0.0
  9
$PUCSBASE
  2

  9
$PUCSNAME
  2

  9
$PUCSORG
 10
0.0
 20
0.0
 30
0.0
  9
$PUCSXDIR
 10
1.0
 20
0.0
 30
0.0
  9
$PUCSYDIR
 10
0.0
 20
1.0
 30
0.0
  9
$PUCSORTHOREF
  2

  9
$PUCSORTHOVIEW
 70
     0
  9
$PUCSORGTOP
 10
0.0
 20
0.0
 30
0.0
  9
$PUCSORGBOTTOM
 10
0.0
 20
0.0
 30
0.0
  9
$PUCSORGLEFT
 10
0.0
 20
0.0
 30
0.0
  9
$PUCSORGRIGHT
 10
0.0
 20
0.0
 30
0.0
  9
$PUCSORGFRONT
 10
0.0
 20
0.0
 30
0.0
  9
$PUCSORGBACK
 10
0.0
 20
0.0
 30
0.0
  9
$USERI1
 70
     0
  9
$USERI2
 70
     0
  9
$USERI3
 70
     0
  9
$USERI4
 70
     0
  9
$USERI5
 70
     0
  9
$USERR1
 40
0.0
  9
$USERR2
 40
0.0
  9
$USERR3
 40
0.0
  9
$USERR4
 40
0.0
  9
$USERR5
 40
0.0
  9
$WORLDVIEW
 70
     1
  9
$SHADEDGE
 70
     3
  9
$SHADEDIF
 70
    70
  9
$TILEMODE
 70
     1
  9
$MAXACTVP
 70
    64
  9
$PINSBASE
 10
0.0
 20
0.0
 30
0.0
  9
$PLIMCHECK
 70
     0
  9
$PEXTMIN
 10
-28.63636363636363
 20
-20.25
 30
0.0
  9
$PEXTMAX
 10
448.6363636363636
 20
317.2499999999999
 30
0.0
  9
$PLIMMIN
 10
-28.63636363636363
 20
-20.25
  9
$PLIMMAX
 10
448.6363636363636
 20
317.2499999999999
  9
$UNITMODE
 70
     0
  9
$VISRETAIN
 70
     1
  9
$PLINEGEN
 70
     0
  9
$PSLTSCALE
 70
     1
  9
$TREEDEPTH
 70
  3020
  9
$CMLSTYLE
  2
Standard
  9
$CMLJUST
 70
     0
  9
$CMLSCALE
 40
1.0
  9
$PROXYGRAPHICS
 70
     1
  9
$MEASUREMENT
 70
     1
  9
$CELWEIGHT
370
    -1
  9
$ENDCAPS
280
     0
  9
$JOINSTYLE
280
     0
  9
$LWDISPLAY
290
     0
  9
$INSUNITS
 70
     1
  9
$HYPERLINKBASE
  1

  9
$STYLESHEET
  1

  9
$XEDIT
290
     1
  9
$CEPSNTYPE
380
     0
  9
$PSTYLEMODE
290
     1
  9
$FINGERPRINTGUID
  2
{7A5BA7AF-666B-444B-8572-93927541E73C}
  9
$VERSIONGUID
  2
{FAEB1C32-E019-11D5-929B-00C0DF256EC4}
  9
$EXTNAMES
290
     1
  9
$PSVPSCALE
 40
0.0
  9
$OLESTARTUP
290
     0
  9
$SORTENTS
280
   127
  9
$INDEXCTL
280
     0
  9
$HIDETEXT
280
     1
  9
$XCLIPFRAME
290
     0
  9
$HALOGAP
280
     0
  9
$OBSCOLOR
 70
   257
  9
$OBSLTYPE
280
     0
  9
$INTERSECTIONDISPLAY
280
     0
  9
$INTERSECTIONCOLOR
 70
   257
  9
$DIMASSOC
280
     2
  9
$PROJECTNAME
  1

  9
$CAMERADISPLAY
290
     0
  9
$LENSLENGTH
 40
50.0
  9
$CAMERAHEIGHT
 40
0.0
  9
$STEPSPERSEC
 40
2.0
  9
$STEPSIZE
 40
6.0
  9
$3DDWFPREC
 40
2.0
  9
$PSOLWIDTH
 40
0.25
  9
$PSOLHEIGHT
 40
4.0
  9
$LOFTANG1
 40
1.570796326794897
  9
$LOFTANG2
 40
1.570796326794897
  9
$LOFTMAG1
 40
0.0
  9
$LOFTMAG2
 40
0.0
  9
$LOFTPARAM
 70
     7
  9
$LOFTNORMALS
280
     1
  9
$LATITUDE
 40
37.795
  9
$LONGITUDE
 40
-122.394
  9
$NORTHDIRECTION
 40
0.0
  9
$TIMEZONE
 70
 -8000
  9
$LIGHTGLYPHDISPLAY
280
     1
  9
$TILEMODELIGHTSYNCH
280
     1
  9
$SOLIDHIST
280
     1
  9
$SHOWHIST
280
     1
  9
$DWFFRAME
280
     2
  9
$DGNFRAME
280
     2
  9
$REALWORLDSCALE
290
     1
  9
$INTERFERECOLOR
 62
   256
  9
$CSHADOW
280
     0
  9
$SHADOWPLANELOCATION
 40
0.0
  0
ENDSEC
  0
SECTION
  2
CLASSES
  0
CLASS
  1
ACDBDICTIONARYWDFLT
  2
AcDbDictionaryWithDefault
  3
ObjectDBX Classes
 90
        0
 91
        4
280
     0
281
     0
  0
CLASS
  1
VISUALSTYLE
  2
AcDbVisualStyle
  3
ObjectDBX Classes
 90
     4095
 91
        4
280
     0
281
     0
  0
CLASS
  1
SCALE
  2
AcDbScale
  3
ObjectDBX Classes
 90
        0
 91
        4
280
     0
281
     0
  0
CLASS
  1
TABLESTYLE
  2
AcDbTableStyle
  3
ObjectDBX Classes
 90
     4095
 91
        3
280
     0
281
     0
  0
CLASS
  1
TCOPTIONALDATA
  2
TcOptionalData
  3
ExTcadCustObjs|Description: TurboCAD extension data object
 90
        0
 91
        3
280
     0
281
     0
  0
ENDSEC
  0
SECTION
  2
TABLES
  0
TABLE
  2
VPORT
  5
8
330
0
100
AcDbSymbolTable
 70
     1
  0
VPORT
  5
29
330
8
100
AcDbSymbolTableRecord
100
AcDbViewportTableRecord
  2
*Active
 70
     0
 10
0.0
 20
0.0
 11
1.0
 21
1.0
 12
0.0
 22
0.0
 13
0.0
 23
0.0
 14
5.0
 24
5.0
 15
5.0
 25
5.0
 16
0.0
 26
0.0
 36
1.0
 17
-291.5516821832557
 27
808.5868625439784
 37
1.0
 40
3247.624528025418
 41
1.272838002436053
 42
50.0
 43
0.0
 44
0.0
 50
0.0
 51
0.0
 71
     0
 72
   100
 73
     1
 74
     3
 75
     0
 76
     1
 77
     0
 78
     0
281
     0
 65
     1
110
0.0
120
0.0
130
0.0
111
1.0
121
0.0
131
0.0
112
0.0
122
1.0
132
0.0
 79
     0
146
0.0
 60
     3
 61
     5
292
     1
282
     1
141
0.0
142
0.0
 63
   256
  0
ENDTAB
  0
TABLE
  2
LTYPE
  5
5
330
0
100
AcDbSymbolTable
 70
    21
  0
LTYPE
  5
14
330
5
100
AcDbSymbolTableRecord
100
AcDbLinetypeTableRecord
  2
ByBlock
 70
     0
  3

 72
    65
 73
     0
 40
0.0
  0
LTYPE
  5
15
330
5
100
AcDbSymbolTableRecord
100
AcDbLinetypeTableRecord
  2
ByLayer
 70
     0
  3

 72
    65
 73
     0
 40
0.0
  0
LTYPE
  5
16
330
5
100
AcDbSymbolTableRecord
100
AcDbLinetypeTableRecord
  2
Continuous
 70
     0
  3
Solid line
 72
    65
 73
     0
 40
0.0
  0
LTYPE
  5
5E
330
5
100
AcDbSymbolTableRecord
100
AcDbLinetypeTableRecord
  2
BORDER
 70
     0
  3
BORDER
 72
    65
 73
     6
 40
1.75
 49
0.5
 74
     0
 49
-0.25
 74
     0
 49
0.5
 74
     0
 49
-0.25
 74
     0
 49
0.0
 74
     0
 49
-0.25
 74
     0
  0
LTYPE
  5
5F
330
5
100
AcDbSymbolTableRecord
100
AcDbLinetypeTableRecord
  2
CENTER
 70
     0
  3
CENTER
 72
    65
 73
     4
 40
2.0
 49
1.25
 74
     0
 49
-0.25
 74
     0
 49
0.25
 74
     0
 49
-0.25
 74
     0
  0
LTYPE
  5
60
330
5
100
AcDbSymbolTableRecord
100
AcDbLinetypeTableRecord
  2
DASHDOT
 70
     0
  3
DASHDOT
 72
    65
 73
     4
 40
1.0
 49
0.5
 74
     0
 49
-0.25
 74
     0
 49
0.0
 74
     0
 49
-0.25
 74
     0
  0
LTYPE
  5
61
330
5
100
AcDbSymbolTableRecord
100
AcDbLinetypeTableRecord
  2
DASHED
 70
     0
  3
DASHED
 72
    65
 73
     2
 40
0.75
 49
0.5
 74
     0
 49
-0.25
 74
     0
  0
LTYPE
  5
62
330
5
100
AcDbSymbolTableRecord
100
AcDbLinetypeTableRecord
  2
DIVIDE
 70
     0
  3
DIVIDE
 72
    65
 73
     6
 40
1.25
 49
0.5
 74
     0
 49
-0.25
 74
     0
 49
0.0
 74
     0
 49
-0.25
 74
     0
 49
0.0
 74
     0
 49
-0.25
 74
     0
  0
LTYPE
  5
63
330
5
100
AcDbSymbolTableRecord
100
AcDbLinetypeTableRecord
  2
DOT
 70
     0
  3
DOT
 72
    65
 73
     2
 40
0.25
 49
0.0
 74
     0
 49
-0.25
 74
     0
  0
LTYPE
  5
64
330
5
100
AcDbSymbolTableRecord
100
AcDbLinetypeTableRecord
  2
HIDDEN
 70
     0
  3
HIDDEN
 72
    65
 73
     2
 40
0.375
 49
0.25
 74
     0
 49
-0.125
 74
     0
  0
LTYPE
  5
65
330
5
100
AcDbSymbolTableRecord
100
AcDbLinetypeTableRecord
  2
PHANTOM
 70
     0
  3
PHANTOM
 72
    65
 73
     6
 40
2.5
 49
1.25
 74
     0
 49
-0.25
 74
     0
 49
0.25
 74
     0
 49
-0.25
 74
     0
 49
0.25
 74
     0
 49
-0.25
 74
     0
  0
LTYPE
  5
66
330
5
100
AcDbSymbolTableRecord
100
AcDbLinetypeTableRecord
  2
$INVISIBLE
 70
     0
  3
$INVISIBLE
 72
    65
 73
     2
 40
200.0
 49
-100.0
 74
     0
 49
-100.0
 74
     0
  0
LTYPE
  5
67
330
5
100
AcDbSymbolTableRecord
100
AcDbLinetypeTableRecord
  2
境界線
 70
     0
  3
境界線
 72
    65
 73
     6
 40
1.75
 49
0.5
 74
     0
 49
-0.25
 74
     0
 49
0.5
 74
     0
 49
-0.25
 74
     0
 49
0.0
 74
     0
 49
-0.25
 74
     0
  0
LTYPE
  5
68
330
5
100
AcDbSymbolTableRecord
100
AcDbLinetypeTableRecord
  2
RENAMED_0
 70
     0
  3
RENAMED_0
 72
    65
 73
     4
 40
2.0
 49
1.25
 74
     0
 49
-0.25
 74
     0
 49
0.25
 74
     0
 49
-0.25
 74
     0
  0
LTYPE
  5
69
330
5
100
AcDbSymbolTableRecord
100
AcDbLinetypeTableRecord
  2
RENAMED_1
 70
     0
  3
RENAMED_1
 72
    65
 73
     4
 40
1.0
 49
0.5
 74
     0
 49
-0.25
 74
     0
 49
0.0
 74
     0
 49
-0.25
 74
     0
  0
LTYPE
  5
6A
330
5
100
AcDbSymbolTableRecord
100
AcDbLinetypeTableRecord
  2
RENAMED_2
 70
     0
  3
RENAMED_2
 72
    65
 73
     2
 40
0.75
 49
0.5
 74
     0
 49
-0.25
 74
     0
  0
LTYPE
  5
6B
330
5
100
AcDbSymbolTableRecord
100
AcDbLinetypeTableRecord
  2
RENAMED_3
 70
     0
  3
RENAMED_3
 72
    65
 73
     6
 40
1.25
 49
0.5
 74
     0
 49
-0.25
 74
     0
 49
0.0
 74
     0
 49
-0.25
 74
     0
 49
0.0
 74
     0
 49
-0.25
 74
     0
  0
LTYPE
  5
6C
330
5
100
AcDbSymbolTableRecord
100
AcDbLinetypeTableRecord
  2
点線
 70
     0
  3
点線
 72
    65
 73
     2
 40
0.25
 49
0.0
 74
     0
 49
-0.25
 74
     0
  0
LTYPE
  5
6D
330
5
100
AcDbSymbolTableRecord
100
AcDbLinetypeTableRecord
  2
RENAMED_4
 70
     0
  3
RENAMED_4
 72
    65
 73
     2
 40
0.375
 49
0.25
 74
     0
 49
-0.125
 74
     0
  0
LTYPE
  5
6E
330
5
100
AcDbSymbolTableRecord
100
AcDbLinetypeTableRecord
  2
RENAMED_5
 70
     0
  3
RENAMED_5
 72
    65
 73
     6
 40
2.5
 49
1.25
 74
     0
 49
-0.25
 74
     0
 49
0.25
 74
     0
 49
-0.25
 74
     0
 49
0.25
 74
     0
 49
-0.25
 74
     0
  0
LTYPE
  5
6F
330
5
100
AcDbSymbolTableRecord
100
AcDbLinetypeTableRecord
  2
$AUXILIARY
 70
     0
  3
$AUXILIARY
 72
    65
 73
     2
 40
0.1
 49
0.05
 74
     0
 49
-0.05
 74
     0
  0
LTYPE
  5
70
330
5
100
AcDbSymbolTableRecord
100
AcDbLinetypeTableRecord
  2
$CONSTRUCTION
 70
     0
  3
$CONSTRUCTION
 72
    65
 73
     4
 40
0.3
 49
0.2
 74
     0
 49
-0.05
 74
     0
 49
0.0
 74
     0
 49
-0.05
 74
     0
  0
LTYPE
  5
71
330
5
100
AcDbSymbolTableRecord
100
AcDbLinetypeTableRecord
  2
$SNAPEXT
 70
     0
  3
$SNAPEXT
 72
    65
 73
     2
 40
0.04
 49
0.02
 74
     0
 49
-0.02
 74
     0
  0
ENDTAB
  0
TABLE
  2
LAYER
  5
2
330
0
100
AcDbSymbolTable
 70
     4
  0
LAYER
  5
10
330
2
100
AcDbSymbolTableRecord
100
AcDbLayerTableRecord
  2
0
 70
     0
 62
     7
  6
Continuous
370
     0
390
F
347
0
  0
LAYER
  5
72
330
2
100
AcDbSymbolTableRecord
100
AcDbLayerTableRecord
  2
$CONSTRUCTION
 70
     0
 62
     9
420
 12632256
  6
$CONSTRUCTION
370
     0
390
F
347
0
  0
LAYER
  5
73
330
2
100
AcDbSymbolTableRecord
100
AcDbLayerTableRecord
  2
ASHADE
 70
     0
 62
     7
  6
Continuous
370
     0
390
F
347
0
  0
LAYER
  5
BF
330
2
100
AcDbSymbolTableRecord
100
AcDbLayerTableRecord
  2
Defpoints
 70
     0
 62
     7
  6
Continuous
290
     0
370
    -3
390
F
347
0
  0
ENDTAB
  0
TABLE
  2
STYLE
  5
3
330
0
100
AcDbSymbolTable
 70
     3
  0
STYLE
  5
11
330
3
100
AcDbSymbolTableRecord
100
AcDbTextStyleTableRecord
  2
Standard
 70
     0
 40
0.0
 41
1.0
 50
0.0
 71
     0
 42
0.2
  3
txt
  4

  0
STYLE
  5
76
330
3
100
AcDbSymbolTableRecord
100
AcDbTextStyleTableRecord
  2
_TCW_TXTSTY_1
 70
     0
 40
0.0
 41
1.0
 50
0.0
 71
     0
 42
0.78125
  3

  4

1001
ACAD
1000
ＭＳ ゴシック
1071
    32802
  0
STYLE
  5
112
330
3
100
AcDbSymbolTableRecord
100
AcDbTextStyleTableRecord
  2
_TCW_TXTSTY_2
 70
     0
 40
0.0
 41
0.85
 50
0.0
 71
     0
 42
54.6875
  3

  4

1001
ACAD
1000
ＭＳ ゴシック
1071
    32802
  0
ENDTAB
  0
TABLE
  2
VIEW
  5
6
330
0
100
AcDbSymbolTable
 70
     1
  0
VIEW
  5
74
330
6
100
AcDbSymbolTableRecord
100
AcDbViewTableRecord
  2
表示_0
 70
     0
 40
210.0
 10
148.5
 20
105.0
 41
297.0
 11
0.0
 21
0.0
 31
1.0
 12
0.0
 22
0.0
 32
0.0
 42
50.0
 43
0.0
 44
0.0
 50
0.0
 71
     0
281
     0
 72
     0
 73
     0
  0
ENDTAB
  0
TABLE
  2
UCS
  5
7
330
0
100
AcDbSymbolTable
 70
     0
  0
ENDTAB
  0
TABLE
  2
APPID
  5
9
330
0
100
AcDbSymbolTable
 70
     2
  0
APPID
  5
12
330
9
100
AcDbSymbolTableRecord
100
AcDbRegAppTableRecord
  2
ACAD
 70
     0
  0
APPID
  5
5D
330
9
100
AcDbSymbolTableRecord
100
AcDbRegAppTableRecord
  2
TCAD
 70
     0
  0
ENDTAB
  0
TABLE
  2
DIMSTYLE
  5
A
330
0
100
AcDbSymbolTable
 70
     2
100
AcDbDimStyleTable
  0
DIMSTYLE
105
27
330
A
100
AcDbSymbolTableRecord
100
AcDbDimStyleTableRecord
  2
Standard
 70
     0
340
11
  0
DIMSTYLE
105
75
102
{ACAD_REACTORS
330
BE
330
CD
330
DB
330
E9
102
}
330
A
100
AcDbSymbolTableRecord
100
AcDbDimStyleTableRecord
  2
標準寸法
 70
     0
 41
15.0
 42
5.0
 43
37.5
 44
10.0
 45
2.0
 77
     1
 78
     8
140
18.21095576923077
147
10.0
148
0.01
172
     1
176
     7
177
     7
178
     7
179
     4
285
     1
340
76
  0
ENDTAB
  0
TABLE
  2
BLOCK_RECORD
  5
1
330
0
100
AcDbSymbolTable
 70
     5
  0
BLOCK_RECORD
  5
1F
330
1
100
AcDbSymbolTableRecord
100
AcDbBlockTableRecord
  2
*Model_Space
340
22
 70
     0
280
     1
281
     0
  0
BLOCK_RECORD
  5
1B
330
1
100
AcDbSymbolTableRecord
100
AcDbBlockTableRecord
  2
*Paper_Space
340
1E
 70
     0
280
     1
281
     0
  0
BLOCK_RECORD
  5
C0
330
1
100
AcDbSymbolTableRecord
100
AcDbBlockTableRecord
  2
*D1
340
0
 70
     0
280
     1
281
     0
  0
BLOCK_RECORD
  5
CE
330
1
100
AcDbSymbolTableRecord
100
AcDbBlockTableRecord
  2
*D2
340
0
 70
     0
280
     1
281
     0
  0
BLOCK_RECORD
  5
DC
330
1
100
AcDbSymbolTableRecord
100
AcDbBlockTableRecord
  2
*D3
340
0
 70
     0
280
     1
281
     0
  0
BLOCK_RECORD
  5
EA
330
1
100
AcDbSymbolTableRecord
100
AcDbBlockTableRecord
  2
*D4
340
0
 70
     0
280
     1
281
     0
  0
ENDTAB
  0
ENDSEC
  0
SECTION
  2
BLOCKS
  0
BLOCK
  5
20
330
1F
100
AcDbEntity
  8
0
100
AcDbBlockBegin
  2
*Model_Space
 70
     0
 10
0.0
 20
0.0
 30
0.0
  3
*Model_Space
  1

  0
ENDBLK
  5
21
330
1F
100
AcDbEntity
  8
0
100
AcDbBlockEnd
  0
BLOCK
  5
1C
330
1B
100
AcDbEntity
 67
     1
  8
0
100
AcDbBlockBegin
  2
*Paper_Space
 70
     0
 10
0.0
 20
0.0
 30
0.0
  3
*Paper_Space
  1

  0
ENDBLK
  5
1D
330
1B
100
AcDbEntity
 67
     1
  8
0
100
AcDbBlockEnd
  0
BLOCK
  5
CB
330
C0
100
AcDbEntity
  8
0
100
AcDbBlockBegin
  2
*D1
 70
     1
 10
0.0
 20
0.0
 30
0.0
  3
*D1
  1

  0
LINE
  5
C1
330
C0
100
AcDbEntity
  8
0
  6
Continuous
 62
     7
370
    -2
100
AcDbLine
 10
548.1896530221486
 20
1078.399314072015
 30
0.0
 11
1007.866263022149
 21
1078.399314072015
 31
0.0
  0
LINE
  5
C2
330
C0
100
AcDbEntity
  8
0
  6
Continuous
 62
     7
370
    -2
100
AcDbLine
 10
539.9228060221485
 20
1590.943856072015
 30
0.0
 11
1007.866263022149
 21
1590.943856072015
 31
0.0
  0
LINE
  5
C3
330
C0
100
AcDbEntity
  8
0
  6
Continuous
 62
     7
370
    -2
100
AcDbLine
 10
997.8662630221486
 20
1093.399314072015
 30
0.0
 11
997.8662630221486
 21
1306.702835072015
 31
0.0
  0
LINE
  5
C4
330
C0
100
AcDbEntity
  8
0
  6
Continuous
 62
     7
370
    -2
100
AcDbLine
 10
997.8662630221486
 20
1575.943856072015
 30
0.0
 11
997.8662630221486
 21
1362.640335072015
 31
0.0
  0
SOLID
  5
C5
330
C0
100
AcDbEntity
  8
0
 62
     7
100
AcDbTrace
 10
995.3662630221486
 20
1093.399314072015
 30
0.0
 11
1000.366263022149
 21
1093.399314072015
 31
0.0
 12
997.8662630221486
 22
1078.399314072015
 32
0.0
 13
997.8662630221486
 23
1078.399314072015
 33
0.0
  0
SOLID
  5
C6
330
C0
100
AcDbEntity
  8
0
 62
     7
100
AcDbTrace
 10
1000.366263022149
 20
1575.943856072015
 30
0.0
 11
995.3662630221486
 21
1575.943856072015
 31
0.0
 12
997.8662630221486
 22
1590.943856072015
 32
0.0
 13
997.8662630221486
 23
1590.943856072015
 33
0.0
  0
MTEXT
  5
C7
330
C0
100
AcDbEntity
  8
0
 62
     7
100
AcDbMText
 10
997.8662630221486
 20
1334.671585072015
 30
0.0
 40
35.9375
 41
0.0
 46
0.0
 71
     5
 72
     1
  1
\A1;515
  7
_TCW_TXTSTY_1
 73
     1
 44
1.0
  0
POINT
  5
C8
330
C0
100
AcDbEntity
  8
Defpoints
 62
     0
100
AcDbPoint
 10
543.1896530221486
 20
1078.399314072015
 30
0.0
  0
POINT
  5
C9
330
C0
100
AcDbEntity
  8
Defpoints
 62
     0
100
AcDbPoint
 10
534.9228060221485
 20
1590.943856072015
 30
0.0
  0
POINT
  5
CA
330
C0
100
AcDbEntity
  8
Defpoints
 62
     0
100
AcDbPoint
 10
997.8662630221486
 20
1590.943856072015
 30
0.0
  0
ENDBLK
  5
CC
330
C0
100
AcDbEntity
  8
0
100
AcDbBlockEnd
  0
BLOCK
  5
D9
330
CE
100
AcDbEntity
  8
0
100
AcDbBlockBegin
  2
*D2
 70
     1
 10
0.0
 20
0.0
 30
0.0
  3
*D2
  1

  0
LINE
  5
CF
330
CE
100
AcDbEntity
  8
0
  6
Continuous
 62
     7
370
    -2
100
AcDbLine
 10
568.5321270221485
 20
1338.525144072015
 30
0.0
 11
568.5321270221486
 21
1750.440474072015
 31
0.0
  0
LINE
  5
D0
330
CE
100
AcDbEntity
  8
0
  6
Continuous
 62
     7
370
    -2
100
AcDbLine
 10
-11.41291697785144
 20
1334.441056072015
 30
0.0
 11
-11.41291697785129
 21
1750.440474072015
 31
0.0
  0
LINE
  5
D1
330
CE
100
AcDbEntity
  8
0
  6
Continuous
 62
     7
370
    -2
100
AcDbLine
 10
553.5321270221486
 20
1740.440474072015
 30
0.0
 11
321.4064800221486
 21
1740.440474072015
 31
0.0
  0
LINE
  5
D2
330
CE
100
AcDbEntity
  8
0
  6
Continuous
 62
     7
370
    -2
100
AcDbLine
 10
3.587083022148704
 20
1740.440474072015
 30
0.0
 11
235.7127300221485
 21
1740.440474072015
 31
0.0
  0
SOLID
  5
D3
330
CE
100
AcDbEntity
  8
0
 62
     7
100
AcDbTrace
 10
553.5321270221486
 20
1737.940474072015
 30
0.0
 11
553.5321270221486
 21
1742.940474072015
 31
0.0
 12
568.5321270221486
 22
1740.440474072015
 32
0.0
 13
568.5321270221486
 23
1740.440474072015
 33
0.0
  0
SOLID
  5
D4
330
CE
100
AcDbEntity
  8
0
 62
     7
100
AcDbTrace
 10
3.587083022148704
 20
1742.940474072015
 30
0.0
 11
3.587083022148704
 21
1737.940474072015
 31
0.0
 12
-11.4129169778513
 22
1740.440474072015
 32
0.0
 13
-11.4129169778513
 23
1740.440474072015
 33
0.0
  0
MTEXT
  5
D5
330
CE
100
AcDbEntity
  8
0
 62
     7
100
AcDbMText
 10
278.5596050221486
 20
1740.440474072015
 30
0.0
 40
35.9375
 41
0.0
 46
0.0
 71
     5
 72
     1
  1
\A1;600
  7
_TCW_TXTSTY_1
 73
     1
 44
1.0
  0
POINT
  5
D6
330
CE
100
AcDbEntity
  8
Defpoints
 62
     0
100
AcDbPoint
 10
568.5321270221485
 20
1333.525144072015
 30
0.0
  0
POINT
  5
D7
330
CE
100
AcDbEntity
  8
Defpoints
 62
     0
100
AcDbPoint
 10
-11.41291697785145
 20
1329.441056072015
 30
0.0
  0
POINT
  5
D8
330
CE
100
AcDbEntity
  8
Defpoints
 62
     0
100
AcDbPoint
 10
-11.4129169778514
 20
1740.440474072015
 30
0.0
  0
ENDBLK
  5
DA
330
CE
100
AcDbEntity
  8
0
100
AcDbBlockEnd
  0
BLOCK
  5
E7
330
DC
100
AcDbEntity
  8
0
100
AcDbBlockBegin
  2
*D3
 70
     1
 10
0.0
 20
0.0
 30
0.0
  3
*D3
  1

  0
LINE
  5
DD
330
DC
100
AcDbEntity
  8
0
  6
Continuous
 62
     7
370
    -2
100
AcDbLine
 10
584.5504
 20
903.282743
 30
0.0
 11
728.020095
 21
903.282743
 31
0.0
  0
LINE
  5
DE
330
DC
100
AcDbEntity
  8
0
  6
Continuous
 62
     7
370
    -2
100
AcDbLine
 10
584.5504
 20
2.19637
 30
0.0
 11
728.020095
 21
2.196370000000002
 31
0.0
  0
LINE
  5
DF
330
DC
100
AcDbEntity
  8
0
  6
Continuous
 62
     7
370
    -2
100
AcDbLine
 10
718.020095
 20
888.282743
 30
0.0
 11
718.020095
 21
480.708306
 31
0.0
  0
LINE
  5
E0
330
DC
100
AcDbEntity
  8
0
  6
Continuous
 62
     7
370
    -2
100
AcDbLine
 10
718.020095
 20
17.19637
 30
0.0
 11
718.020095
 21
424.7708059999999
 31
0.0
  0
SOLID
  5
E1
330
DC
100
AcDbEntity
  8
0
 62
     7
100
AcDbTrace
 10
720.520095
 20
888.282743
 30
0.0
 11
715.520095
 21
888.282743
 31
0.0
 12
718.020095
 22
903.282743
 32
0.0
 13
718.020095
 23
903.282743
 33
0.0
  0
SOLID
  5
E2
330
DC
100
AcDbEntity
  8
0
 62
     7
100
AcDbTrace
 10
715.520095
 20
17.19637
 30
0.0
 11
720.520095
 21
17.19637
 31
0.0
 12
718.020095
 22
2.196370000000002
 32
0.0
 13
718.020095
 23
2.196370000000002
 33
0.0
  0
MTEXT
  5
E3
330
DC
100
AcDbEntity
  8
0
 62
     7
100
AcDbMText
 10
718.020095
 20
452.739556
 30
0.0
 40
35.9375
 41
0.0
 46
0.0
 71
     5
 72
     1
  1
\A1;882
  7
_TCW_TXTSTY_1
 73
     1
 44
1.0
  0
POINT
  5
E4
330
DC
100
AcDbEntity
  8
Defpoints
 62
     0
100
AcDbPoint
 10
579.5504
 20
903.282743
 30
0.0
  0
POINT
  5
E5
330
DC
100
AcDbEntity
  8
Defpoints
 62
     0
100
AcDbPoint
 10
579.5504
 20
2.19637
 30
0.0
  0
POINT
  5
E6
330
DC
100
AcDbEntity
  8
Defpoints
 62
     0
100
AcDbPoint
 10
718.020095
 20
2.19637
 30
0.0
  0
ENDBLK
  5
E8
330
DC
100
AcDbEntity
  8
0
100
AcDbBlockEnd
  0
BLOCK
  5
F5
330
EA
100
AcDbEntity
  8
0
100
AcDbBlockBegin
  2
*D4
 70
     1
 10
0.0
 20
0.0
 30
0.0
  3
*D4
  1

  0
LINE
  5
EB
330
EA
100
AcDbEntity
  8
0
  6
Continuous
 62
     7
370
    -2
100
AcDbLine
 10
584.550395
 20
-2.559226000000001
 30
0.0
 11
730.086801
 21
-2.559226000000026
 31
0.0
  0
LINE
  5
EC
330
EA
100
AcDbEntity
  8
0
  6
Continuous
 62
     7
370
    -2
100
AcDbLine
 10
549.416293
 20
-302.232446
 30
0.0
 11
730.086801
 21
-302.232446
 31
0.0
  0
LINE
  5
ED
330
EA
100
AcDbEntity
  8
0
  6
Continuous
 62
     7
370
    -2
100
AcDbLine
 10
720.086801
 20
-17.55922600000002
 30
0.0
 11
720.086801
 21
-124.427086
 31
0.0
  0
LINE
  5
EE
330
EA
100
AcDbEntity
  8
0
  6
Continuous
 62
     7
370
    -2
100
AcDbLine
 10
720.086801
 20
-287.232446
 30
0.0
 11
720.086801
 21
-180.364586
 31
0.0
  0
SOLID
  5
EF
330
EA
100
AcDbEntity
  8
0
 62
     7
100
AcDbTrace
 10
722.586801
 20
-17.55922600000002
 30
0.0
 11
717.586801
 21
-17.55922600000002
 31
0.0
 12
720.086801
 22
-2.559226000000024
 32
0.0
 13
720.086801
 23
-2.559226000000024
 33
0.0
  0
SOLID
  5
F0
330
EA
100
AcDbEntity
  8
0
 62
     7
100
AcDbTrace
 10
717.586801
 20
-287.232446
 30
0.0
 11
722.586801
 21
-287.232446
 31
0.0
 12
720.086801
 22
-302.232446
 32
0.0
 13
720.086801
 23
-302.232446
 33
0.0
  0
MTEXT
  5
F1
330
EA
100
AcDbEntity
  8
0
 62
     7
100
AcDbMText
 10
720.086801
 20
-152.395836
 30
0.0
 40
35.9375
 41
0.0
 46
0.0
 71
     5
 72
     1
  1
\A1;300
  7
_TCW_TXTSTY_1
 73
     1
 44
1.0
  0
POINT
  5
F2
330
EA
100
AcDbEntity
  8
Defpoints
 62
     0
100
AcDbPoint
 10
579.550395
 20
-2.559226
 30
0.0
  0
POINT
  5
F3
330
EA
100
AcDbEntity
  8
Defpoints
 62
     0
100
AcDbPoint
 10
544.416293
 20
-302.232446
 30
0.0
  0
POINT
  5
F4
330
EA
100
AcDbEntity
  8
Defpoints
 62
     0
100
AcDbPoint
 10
720.086801
 20
-302.232446
 30
0.0
  0
ENDBLK
  5
F6
330
EA
100
AcDbEntity
  8
0
100
AcDbBlockEnd
  0
ENDSEC
  0
SECTION
  2
ENTITIES
  0
LWPOLYLINE
  5
7B
102
{ACAD_XDICTIONARY
360
79
102
}
330
1F
100
AcDbEntity
  8
0
  6
Continuous
 62
     7
 48
0.2000000029802322
100
AcDbPolyline
 90
        4
 70
     1
 43
0.0
 10
0.0
 20
0.0
 10
580.0
 20
0.0
 10
580.0
 20
905.0
 10
0.0
 20
905.0
  0
LINE
  5
7E
102
{ACAD_XDICTIONARY
360
7C
102
}
330
1F
100
AcDbEntity
  8
0
  6
Continuous
 62
     7
 48
0.2000000029802322
100
AcDbLine
 10
37.153926
 20
-4.582837
 30
0.0
 11
547.384695
 21
-4.582837
 31
0.0
  0
LINE
  5
81
102
{ACAD_XDICTIONARY
360
7F
102
}
330
1F
100
AcDbEntity
  8
0
  6
Continuous
 62
     7
 48
0.2000000029802322
100
AcDbLine
 10
37.153926
 20
-280.608485
 30
0.0
 11
548.5
 21
-280.608485
 31
0.0
  0
LINE
  5
84
102
{ACAD_XDICTIONARY
360
82
102
}
330
1F
100
AcDbEntity
  8
0
  6
Continuous
 62
     7
 48
0.2000000029802322
100
AcDbLine
 10
37.153926
 20
-275.531562
 30
0.0
 11
547.384695
 21
-275.531562
 31
0.0
  0
LINE
  5
87
102
{ACAD_XDICTIONARY
360
85
102
}
330
1F
100
AcDbEntity
  8
0
  6
Continuous
 62
     7
 48
0.2000000029802322
100
AcDbLine
 10
528.238628
 20
-5.185408
 30
0.0
 11
528.238628
 21
-276.608485
 31
0.0
  0
LINE
  5
8A
102
{ACAD_XDICTIONARY
360
88
102
}
330
1F
100
AcDbEntity
  8
0
  6
Continuous
 62
     7
 48
0.2000000029802322
100
AcDbLine
 10
57.354013
 20
-5.185408
 30
0.0
 11
57.354013
 21
-274.262331
 31
0.0
  0
LINE
  5
8D
102
{ACAD_XDICTIONARY
360
8B
102
}
330
1F
100
AcDbEntity
  8
0
  6
Continuous
 62
     7
 48
0.2000000029802322
100
AcDbLine
 10
546.007859
 20
-5.185408
 30
0.0
 11
546.007859
 21
-280.608485
 31
0.0
  0
LINE
  5
90
102
{ACAD_XDICTIONARY
360
8E
102
}
330
1F
100
AcDbEntity
  8
0
  6
Continuous
 62
     7
 48
0.2000000029802322
100
AcDbLine
 10
37.046321
 20
-5.185408
 30
0.0
 11
37.046321
 21
-281.877716
 31
0.0
  0
LWPOLYLINE
  5
93
102
{ACAD_XDICTIONARY
360
91
102
}
330
1F
100
AcDbEntity
  8
0
  6
Continuous
 62
     7
 48
0.2000000029802322
100
AcDbPolyline
 90
        4
 70
     1
 43
0.0
 10
43.392474
 20
-281.877716
 10
52.27709
 20
-281.877716
 10
52.27709
 20
-300.916178
 10
43.392474
 20
-300.916178
  0
LWPOLYLINE
  5
96
102
{ACAD_XDICTIONARY
360
94
102
}
330
1F
100
AcDbEntity
  8
0
  6
Continuous
 62
     7
 48
0.2000000029802322
100
AcDbPolyline
 90
        4
 70
     1
 43
0.0
 10
533.950155
 20
-281.2431
 10
542.83477
 20
-281.2431
 10
542.83477
 20
-300.281562
 10
533.950155
 20
-300.281562
  0
CIRCLE
  5
99
102
{ACAD_XDICTIONARY
360
97
102
}
330
1F
100
AcDbEntity
  8
0
  6
Continuous
 62
     7
 48
0.2000000029802322
100
AcDbCircle
 10
278.5354490221486
 20
1334.913263072015
 30
0.0
 40
290.0
  0
LWPOLYLINE
  5
9C
102
{ACAD_XDICTIONARY
360
9A
102
}
330
1F
100
AcDbEntity
  8
0
  6
Continuous
 62
     7
 48
0.2000000029802322
100
AcDbPolyline
 90
        4
 70
     1
 43
0.0
 10
22.19711202214855
 20
1592.556546072015
 10
537.1971120221485
 20
1592.556546072015
 10
537.1971120221485
 20
1077.556546072015
 10
22.19711202214855
 20
1077.556546072015
  0
LWPOLYLINE
  5
9F
102
{ACAD_XDICTIONARY
360
9D
102
}
330
1F
100
AcDbEntity
  8
0
  6
Continuous
 62
     7
 48
0.2000000029802322
100
AcDbPolyline
 90
        4
 70
     1
 43
0.0
 10
426.700129
 20
-3.981689
 10
452.084745
 20
-3.981689
 10
452.084745
 20
-82.673996
 10
426.700129
 20
-82.673996
  0
LWPOLYLINE
  5
A2
102
{ACAD_XDICTIONARY
360
A0
102
}
330
1F
100
AcDbEntity
  8
0
  6
Continuous
 62
     7
 48
0.2000000029802322
100
AcDbPolyline
 90
        4
 70
     1
 43
0.0
 10
414.007821
 20
-36.981689
 10
459.700129
 20
-36.981689
 10
459.700129
 20
-47.135535
 10
414.007821
 20
-47.135535
  0
CIRCLE
  5
A5
102
{ACAD_XDICTIONARY
360
A3
102
}
330
1F
100
AcDbEntity
  8
0
  6
Continuous
 62
     7
 48
0.2000000029802322
100
AcDbCircle
 10
469.853975
 20
429.233422
 30
0.0
 40
19.82601899999997
  0
LINE
  5
A8
102
{ACAD_XDICTIONARY
360
A6
102
}
330
1F
100
AcDbEntity
  8
0
  6
Continuous
 62
     7
 48
0.2000000029802322
100
AcDbLine
 10
469.853975
 20
449.059441
 30
0.0
 11
469.853975
 21
898.848807
 31
0.0
  0
LINE
  5
AB
102
{ACAD_XDICTIONARY
360
A9
102
}
330
1F
100
AcDbEntity
  8
0
  6
点線
 62
     7
 48
0.2000000029802322
100
AcDbLine
 10
72.19711202214856
 20
1123.556546072015
 30
0.0
 11
72.19711202214856
 21
1553.139810072015
 31
0.0
  0
LINE
  5
AE
102
{ACAD_XDICTIONARY
360
AC
102
}
330
1F
100
AcDbEntity
  8
0
  6
DOT
 62
     7
 48
0.2000000029802322
100
AcDbLine
 10
71.54359002214855
 20
1553.139810072015
 30
0.0
 11
490.3897440221485
 21
1553.139810072015
 31
0.0
  0
LINE
  5
B1
102
{ACAD_XDICTIONARY
360
AF
102
}
330
1F
100
AcDbEntity
  8
0
  6
DOT
 62
     7
 48
0.2000000029802322
100
AcDbLine
 10
490.3897440221485
 20
1553.139810072015
 30
0.0
 11
490.3897440221485
 21
1124.139810072015
 31
0.0
  0
LINE
  5
B4
102
{ACAD_XDICTIONARY
360
B2
102
}
330
1F
100
AcDbEntity
  8
0
  6
DOT
 62
     7
 48
0.2000000029802322
100
AcDbLine
 10
490.3897440221485
 20
1124.139810072015
 30
0.0
 11
71.54359002214858
 21
1124.139810072015
 31
0.0
  0
CIRCLE
  5
B7
102
{ACAD_XDICTIONARY
360
B5
102
}
330
1F
100
AcDbEntity
  8
0
  6
Continuous
 62
     7
 48
0.2000000029802322
100
AcDbCircle
 10
291.0
 20
74.403032
 30
0.0
 40
15.0
  0
LWPOLYLINE
  5
BA
102
{ACAD_XDICTIONARY
360
B8
102
}
330
1F
100
AcDbEntity
  8
0
  6
Continuous
 62
     7
 48
0.2000000029802322
100
AcDbPolyline
 90
        4
 70
     1
 43
0.0
 10
276.564314
 20
70.327376
 10
302.316641
 20
70.327376
 10
302.316641
 20
33.787647
 10
276.564314
 20
33.787647
  0
LWPOLYLINE
  5
BD
102
{ACAD_XDICTIONARY
360
BB
102
}
330
1F
100
AcDbEntity
  8
0
  6
Continuous
 62
     7
 48
0.2000000029802322
100
AcDbPolyline
 90
        4
 70
     1
 43
0.0
 10
265.92167
 20
101.298999
 10
316.690901
 20
101.298999
 10
316.690901
 20
91.145153
 10
265.92167
 20
91.145153
  0
DIMENSION
  5
BE
330
1F
100
AcDbEntity
  8
0
  6
Continuous
 62
     7
100
AcDbDimension
  2
*D1
 10
997.8662630221486
 20
1590.943856072015
 30
0.0
 11
997.8662630221486
 21
1334.671585072015
 31
0.0
 70
   160
  1
515
 71
     5
 42
512.5445420000001
 73
     0
 74
     0
 75
     0
  3
標準寸法
100
AcDbAlignedDimension
 13
543.1896530221486
 23
1078.399314072015
 33
0.0
 14
534.9228060221485
 24
1590.943856072015
 34
0.0
 50
90.0
100
AcDbRotatedDimension
1001
ACAD
1000
DSTYLE
1002
{
1070
   148
1040
0.0000001
1070
   276
1070
     2
1070
   140
1040
35.9375
1002
}
  0
DIMENSION
  5
CD
330
1F
100
AcDbEntity
  8
0
  6
Continuous
 62
     7
100
AcDbDimension
  2
*D2
 10
-11.4129169778513
 20
1740.440474072015
 30
0.0
 11
278.5596050221486
 21
1740.440474072015
 31
0.0
 70
   160
  1
600
 71
     5
 42
579.9450439999999
 73
     0
 74
     0
 75
     0
  3
標準寸法
100
AcDbAlignedDimension
 13
568.5321270221485
 23
1333.525144072015
 33
0.0
 14
-11.41291697785145
 24
1329.441056072015
 34
0.0
 50
180.0
100
AcDbRotatedDimension
1001
ACAD
1000
DSTYLE
1002
{
1070
   148
1040
0.0000001
1070
   276
1070
     2
1070
   140
1040
35.9375
1002
}
  0
DIMENSION
  5
DB
330
1F
100
AcDbEntity
  8
0
  6
Continuous
 62
     7
100
AcDbDimension
  2
*D3
 10
718.020095
 20
2.196370000000002
 30
0.0
 11
718.020095
 21
452.739556
 31
0.0
 70
   161
  1
882
 71
     5
 42
901.086373
 73
     0
 74
     0
 75
     0
  3
標準寸法
100
AcDbAlignedDimension
 13
579.5504
 23
903.282743
 33
0.0
 14
579.5504
 24
2.19637
 34
0.0
1001
ACAD
1000
DSTYLE
1002
{
1070
   148
1040
0.0000001
1070
   276
1070
     2
1070
   140
1040
35.9375
1002
}
  0
DIMENSION
  5
E9
330
1F
100
AcDbEntity
  8
0
  6
Continuous
 62
     7
100
AcDbDimension
  2
*D4
 10
720.086801
 20
-302.232446
 30
0.0
 11
720.086801
 21
-152.395836
 31
0.0
 70
   160
  1
<>
 71
     5
 42
299.67322
 73
     0
 74
     0
 75
     0
  3
標準寸法
100
AcDbAlignedDimension
 13
579.550395
 23
-2.559226
 33
0.0
 14
544.416293
 24
-302.232446
 34
0.0
 50
90.0
100
AcDbRotatedDimension
1001
ACAD
1000
DSTYLE
1002
{
1070
   148
1040
0.0000001
1070
   276
1070
     2
1070
   140
1040
35.9375
1002
}
  0
LEADER
  5
F7
330
1F
100
AcDbEntity
  8
0
  6
Continuous
 62
     7
100
AcDbLeader
  3
標準寸法
 76
     5
 10
210.814182
 20
-283.174549
 30
0.0
 10
496.02042
 20
-589.047904
 30
0.0
 10
777.093233
 20
-589.047904
 30
0.0
 10
792.093233
 20
-589.047904
 30
0.0
 10
1252.093233
 20
-589.047904
 30
0.0
1001
ACAD
1000
DSTYLE
1002
{
1070
   148
1040
0.0000001
1070
    77
1070
     0
1002
}
  0
MTEXT
  5
FA
102
{ACAD_XDICTIONARY
360
F8
102
}
330
1F
100
AcDbEntity
  8
0
  6
Continuous
 62
     7
100
AcDbMText
 10
802.093233
 20
-559.797904
 30
0.0
 40
35.9375
 41
450.0
 46
0.0
 71
     1
 72
     1
  1
溶融亜鉛メッキ台座　Ｈ＝300　Ｗ＝515
  7
_TCW_TXTSTY_1
 73
     1
 44
1.0
  0
LEADER
  5
FB
330
1F
100
AcDbEntity
  8
0
  6
Continuous
 62
     7
100
AcDbLeader
  3
標準寸法
 76
     5
 10
293.310792
 20
295.504768
 30
0.0
 10
799.297821
 20
-411.31069
 30
0.0
 10
1113.575478
 20
-411.31069
 30
0.0
 10
1128.575478
 20
-411.31069
 30
0.0
 10
1501.075478
 20
-411.31069
 30
0.0
1001
ACAD
1000
DSTYLE
1002
{
1070
   148
1040
0.0000001
1070
    77
1070
     0
1002
}
  0
MTEXT
  5
FE
102
{ACAD_XDICTIONARY
360
FC
102
}
330
1F
100
AcDbEntity
  8
0
  6
Continuous
 62
     7
100
AcDbMText
 10
1138.575478
 20
-382.06069
 30
0.0
 40
35.9375
 41
362.5
 46
0.0
 71
     1
 72
     1
  1
高密度ポリエチレン　容量200Ｌ
  7
_TCW_TXTSTY_1
 73
     1
 44
1.0
  0
LEADER
  5
FF
330
1F
100
AcDbEntity
  8
0
  6
Continuous
 62
     7
100
AcDbLeader
  3
標準寸法
 76
     5
 10
435.882934
 20
-53.769537
 30
0.0
 10
760.356697
 20
-481.578893
 30
0.0
 10
1190.232764
 20
-481.578893
 30
0.0
 10
1205.232764
 20
-481.578893
 30
0.0
 10
1340.232764
 20
-481.578893
 30
0.0
1001
ACAD
1000
DSTYLE
1002
{
1070
   148
1040
0.0000001
1070
    77
1070
     0
1002
}
  0
MTEXT
  5
102
102
{ACAD_XDICTIONARY
360
100
102
}
330
1F
100
AcDbEntity
  8
0
  6
Continuous
 62
     7
100
AcDbMText
 10
1215.232764
 20
-452.328893
 30
0.0
 40
35.9375
 41
125.0
 46
0.0
 71
     1
 72
     1
  1
排水コック
  7
_TCW_TXTSTY_1
 73
     1
 44
1.0
  0
LEADER
  5
103
330
1F
100
AcDbEntity
  8
0
  6
Continuous
 62
     7
100
AcDbLeader
  3
標準寸法
 76
     5
 10
286.993047
 20
66.099751
 30
0.0
 10
76.149612
 20
-190.172524
 30
0.0
 10
-55.998739
 20
-190.172524
 30
0.0
 10
-70.998739
 20
-190.172524
 30
0.0
 10
-330.998739
 20
-190.172524
 30
0.0
1001
ACAD
1000
DSTYLE
1002
{
1070
   148
1040
0.0000001
1070
    77
1070
     0
1002
}
  0
MTEXT
  5
106
102
{ACAD_XDICTIONARY
360
104
102
}
330
1F
100
AcDbEntity
  8
0
  6
Continuous
 62
     7
100
AcDbMText
 10
-330.998739
 20
-135.922524
 30
0.0
 40
35.9375
 41
250.0
 46
0.0
 71
     1
 72
     1
  1
蛇口　固定ゴマ　Φ13\P
  7
_TCW_TXTSTY_1
 73
     1
 44
1.0
  0
LEADER
  5
107
330
1F
100
AcDbEntity
  8
0
  6
Continuous
 62
     7
100
AcDbLeader
  3
標準寸法
 76
     5
 10
472.574599
 20
424.637239
 30
0.0
 10
637.911548
 20
180.765239
 30
0.0
 10
929.317921
 20
180.765239
 30
0.0
 10
944.317921
 20
180.765239
 30
0.0
 10
1029.317921
 20
180.765239
 30
0.0
1001
ACAD
1000
DSTYLE
1002
{
1070
   148
1040
0.0000001
1070
    77
1070
     0
1002
}
  0
MTEXT
  5
10A
102
{ACAD_XDICTIONARY
360
108
102
}
330
1F
100
AcDbEntity
  8
0
  6
Continuous
 62
     7
100
AcDbMText
 10
954.317921
 20
210.015239
 30
0.0
 40
35.9375
 41
75.0
 46
0.0
 71
     1
 72
     1
  1
水位計
  7
_TCW_TXTSTY_1
 73
     1
 44
1.0
  0
LWPOLYLINE
  5
10D
102
{ACAD_XDICTIONARY
360
10B
102
}
330
1F
100
AcDbEntity
  8
0
  6
Continuous
 62
     7
 48
0.2000000029802322
100
AcDbPolyline
 90
        4
 70
     1
 43
0.0
 10
-9.568405
 20
628.9637
 10
-0.433106
 20
628.9637
 10
-0.433106
 20
583.496029
 10
-9.568405
 20
583.496029
  0
LEADER
  5
10E
330
1F
100
AcDbEntity
  8
0
  6
Continuous
 62
     7
100
AcDbLeader
  3
標準寸法
 76
     5
 10
-11.20089
 20
610.363285
 30
0.0
 10
-129.003466
 20
748.83298
 30
0.0
 10
-348.074924
 20
748.83298
 30
0.0
 10
-363.074924
 20
748.83298
 30
0.0
 10
-773.074924
 20
748.83298
 30
0.0
1001
ACAD
1000
DSTYLE
1002
{
1070
   148
1040
0.0000001
1070
    77
1070
     0
1002
}
  0
MTEXT
  5
111
102
{ACAD_XDICTIONARY
360
10F
102
}
330
1F
100
AcDbEntity
  8
0
  6
Continuous
 62
     7
100
AcDbMText
 10
-773.074924
 20
778.08298
 30
0.0
 40
35.9375
 41
400.0
 46
0.0
 71
     1
 72
     1
  1
雨水入口（トイの位置により決定）
  7
_TCW_TXTSTY_1
 73
     1
 44
1.0
  0
TEXT
  5
113
330
1F
100
AcDbEntity
  8
0
  6
Continuous
 62
     7
100
AcDbText
 10
-9.748242747235395
 20
2038.562110897655
 30
0.0
 40
54.6875
  1
雨水くん　シップス仕様
 41
0.856
  7
_TCW_TXTSTY_2
100
AcDbText
  0
LWPOLYLINE
  5
116
102
{ACAD_XDICTIONARY
360
114
102
}
330
1F
100
AcDbEntity
  8
0
  6
Continuous
 62
     7
 48
0.2000000029802322
100
AcDbPolyline
 90
        4
 70
     1
 43
0.0
 10
-1655.066892772659
 20
2131.366840258256
 10
2681.670055466652
 20
2131.366840258256
 10
2681.670055466652
 20
-670.7884380404912
 10
-1655.066892772659
 20
-670.7884380404912
  0
LINE
  5
119
102
{ACAD_XDICTIONARY
360
117
102
}
330
1F
100
AcDbEntity
  8
0
  6
Continuous
 62
     7
 48
0.2000000029802322
100
AcDbLine
 10
496.839277
 20
2135.60062
 30
0.0
 11
496.839277
 21
2135.60062
 31
0.0
  0
LINE
  5
11C
102
{ACAD_XDICTIONARY
360
11A
102
}
330
1F
100
AcDbEntity
  8
0
  6
Continuous
 62
     7
 48
0.2000000029802322
100
AcDbLine
 10
509.239549
 20
2135.60062
 30
0.0
 11
509.239549
 21
2235.60062
 31
0.0
  0
LINE
  5
11F
102
{ACAD_XDICTIONARY
360
11D
102
}
330
1F
100
AcDbEntity
  8
0
  6
Continuous
 62
     7
 48
0.2000000029802322
100
AcDbLine
 10
2692.211869996217
 20
907.9091193960273
 30
0.0
 11
2792.211869996217
 21
907.9091193960273
 31
0.0
  0
LINE
  5
122
102
{ACAD_XDICTIONARY
360
120
102
}
330
1F
100
AcDbEntity
  8
0
  6
Continuous
 62
     7
 48
0.2000000029802322
100
AcDbLine
 10
448.502948
 20
-675.127629
 30
0.0
 11
448.502948
 21
-775.127629
 31
0.0
  0
LWPOLYLINE
  5
125
102
{ACAD_XDICTIONARY
360
123
102
}
330
1F
100
AcDbEntity
  8
0
  6
Continuous
 62
     7
370
     0
100
AcDbPolyline
 90
        4
 70
   129
 43
0.0
 10
-483.0192497126653
 20
881.6698132882535
 10
-418.4301885108812
 20
881.6698132882535
 10
-418.4301885108812
 20
825.1543847366922
 10
-483.0192497126653
 20
825.1543847366922
  0
LWPOLYLINE
  5
128
102
{ACAD_XDICTIONARY
360
126
102
}
330
1F
100
AcDbEntity
  8
0
  6
Continuous
 62
     7
370
     0
100
AcDbPolyline
 90
        4
 70
   129
 43
0.0
 10
-494.1204946065204
 20
900.8446908286985
 10
-411.365759941734
 20
900.8446908286985
 10
-411.365759941734
 20
882.6790173656966
 10
-494.1204946065204
 20
882.6790173656966
  0
LWPOLYLINE
  5
12B
102
{ACAD_XDICTIONARY
360
129
102
}
330
1F
100
AcDbEntity
  8
0
  6
Continuous
 62
     7
370
     0
100
AcDbPolyline
 90
        4
 70
   129
 43
0.0
 10
-412.574825822546
 20
866.8315447610192
 10
-384.1046218645742
 20
847.6788620983838
 10
-391.9910206080124
 20
835.9558369392188
 10
-420.4612245659842
 20
855.1085196018543
  0
POLYLINE
  5
12E
102
{ACAD_XDICTIONARY
360
12C
102
}
330
1F
100
AcDbEntity
  8
0
  6
Continuous
 62
     7
370
     0
100
AcDb2dPolyline
 66
     1
 10
0.0
 20
0.0
 30
0.0
 70
   132
 75
     6
  0
VERTEX
  5
130
330
12E
100
AcDbEntity
  8
0
  6
Continuous
 62
     7
100
AcDbVertex
100
AcDb2dVertex
 10
-382.0988415103981
 20
849.3752826074325
 30
0.0
 70
    16
  0
VERTEX
  5
131
330
12E
100
AcDbEntity
  8
0
  6
Continuous
 62
     7
100
AcDbVertex
100
AcDb2dVertex
 10
-309.4361476583906
 20
796.8966703809826
 30
0.0
 70
    16
  0
VERTEX
  5
132
330
12E
100
AcDbEntity
  8
0
  6
Continuous
 62
     7
100
AcDbVertex
100
AcDb2dVertex
 10
-182.2764334173774
 20
655.6080990020791
 30
0.0
 70
    16
  0
VERTEX
  5
133
330
12E
100
AcDbEntity
  8
0
  6
Continuous
 62
     7
100
AcDbVertex
100
AcDb2dVertex
 10
-81.3560252895893
 20
607.1663031007407
 30
0.0
 70
    16
  0
VERTEX
  5
134
330
12E
100
AcDbEntity
  8
0
  6
Continuous
 62
     7
100
AcDbVertex
100
AcDb2dVertex
 10
-12.73014776269325
 20
609.1847112632965
 30
0.0
 70
    16
  0
VERTEX
  5
135
330
12E
100
AcDbEntity
  8
0
  6
Continuous
 62
     7
100
AcDbVertex
100
AcDb2dVertex
 10
-382.0988415103981
 20
849.3752826074325
 30
0.0
 70
     8
  0
VERTEX
  5
136
330
12E
100
AcDbEntity
  8
0
  6
Continuous
 62
     7
100
AcDbVertex
100
AcDb2dVertex
 10
-371.2672433318078
 20
841.3724203934091
 30
0.0
 70
     8
  0
VERTEX
  5
137
330
12E
100
AcDbEntity
  8
0
  6
Continuous
 62
     7
100
AcDbVertex
100
AcDb2dVertex
 10
-360.5699954465376
 20
833.1281061029398
 30
0.0
 70
     8
  0
VERTEX
  5
138
330
12E
100
AcDbEntity
  8
0
  6
Continuous
 62
     7
100
AcDbVertex
100
AcDb2dVertex
 10
-350.0052055969352
 20
824.6733727615243
 30
0.0
 70
     8
  0
VERTEX
  5
139
330
12E
100
AcDbEntity
  8
0
  6
Continuous
 62
     7
100
AcDbVertex
100
AcDb2dVertex
 10
-339.5709815253481
 20
816.0392533946614
 30
0.0
 70
     8
  0
VERTEX
  5
13A
330
12E
100
AcDbEntity
  8
0
  6
Continuous
 62
     7
100
AcDbVertex
100
AcDb2dVertex
 10
-329.2654309741239
 20
807.2567810278508
 30
0.0
 70
     8
  0
VERTEX
  5
13B
330
12E
100
AcDbEntity
  8
0
  6
Continuous
 62
     7
100
AcDbVertex
100
AcDb2dVertex
 10
-319.0866616856102
 20
798.3569886865916
 30
0.0
 70
     8
  0
VERTEX
  5
13C
330
12E
100
AcDbEntity
  8
0
  6
Continuous
 62
     7
100
AcDbVertex
100
AcDb2dVertex
 10
-309.0327814021547
 20
789.3709093963832
 30
0.0
 70
     8
  0
VERTEX
  5
13D
330
12E
100
AcDbEntity
  8
0
  6
Continuous
 62
     7
100
AcDbVertex
100
AcDb2dVertex
 10
-299.1018978661049
 20
780.3295761827246
 30
0.0
 70
     8
  0
VERTEX
  5
13E
330
12E
100
AcDbEntity
  8
0
  6
Continuous
 62
     7
100
AcDbVertex
100
AcDb2dVertex
 10
-289.2921188198085
 20
771.2640220711157
 30
0.0
 70
     8
  0
VERTEX
  5
13F
330
12E
100
AcDbEntity
  8
0
  6
Continuous
 62
     7
100
AcDbVertex
100
AcDb2dVertex
 10
-279.601552005613
 20
762.2052800870551
 30
0.0
 70
     8
  0
VERTEX
  5
140
330
12E
100
AcDbEntity
  8
0
  6
Continuous
 62
     7
100
AcDbVertex
100
AcDb2dVertex
 10
-270.0283051658661
 20
753.1843832560427
 30
0.0
 70
     8
  0
VERTEX
  5
141
330
12E
100
AcDbEntity
  8
0
  6
Continuous
 62
     7
100
AcDbVertex
100
AcDb2dVertex
 10
-260.5704860429154
 20
744.2323646035774
 30
0.0
 70
     8
  0
VERTEX
  5
142
330
12E
100
AcDbEntity
  8
0
  6
Continuous
 62
     7
100
AcDbVertex
100
AcDb2dVertex
 10
-251.2262023791084
 20
735.3802571551585
 30
0.0
 70
     8
  0
VERTEX
  5
143
330
12E
100
AcDbEntity
  8
0
  6
Continuous
 62
     7
100
AcDbVertex
100
AcDb2dVertex
 10
-241.9935619167928
 20
726.6590939362856
 30
0.0
 70
     8
  0
VERTEX
  5
144
330
12E
100
AcDbEntity
  8
0
  6
Continuous
 62
     7
100
AcDbVertex
100
AcDb2dVertex
 10
-232.8706723983161
 20
718.0999079724577
 30
0.0
 70
     8
  0
VERTEX
  5
145
330
12E
100
AcDbEntity
  8
0
  6
Continuous
 62
     7
100
AcDbVertex
100
AcDb2dVertex
 10
-223.8556415660261
 20
709.7337322891741
 30
0.0
 70
     8
  0
VERTEX
  5
146
330
12E
100
AcDbEntity
  8
0
  6
Continuous
 62
     7
100
AcDbVertex
100
AcDb2dVertex
 10
-214.9465771622702
 20
701.5915999119343
 30
0.0
 70
     8
  0
VERTEX
  5
147
330
12E
100
AcDbEntity
  8
0
  6
Continuous
 62
     7
100
AcDbVertex
100
AcDb2dVertex
 10
-206.1415869293961
 20
693.7045438662375
 30
0.0
 70
     8
  0
VERTEX
  5
148
330
12E
100
AcDbEntity
  8
0
  6
Continuous
 62
     7
100
AcDbVertex
100
AcDb2dVertex
 10
-197.4387786097514
 20
686.103597177583
 30
0.0
 70
     8
  0
VERTEX
  5
149
330
12E
100
AcDbEntity
  8
0
  6
Continuous
 62
     7
100
AcDbVertex
100
AcDb2dVertex
 10
-188.8362599456837
 20
678.8197928714701
 30
0.0
 70
     8
  0
VERTEX
  5
14A
330
12E
100
AcDbEntity
  8
0
  6
Continuous
 62
     7
100
AcDbVertex
100
AcDb2dVertex
 10
-180.329363368317
 20
671.8793702540122
 30
0.0
 70
     8
  0
VERTEX
  5
14B
330
12E
100
AcDbEntity
  8
0
  6
Continuous
 62
     7
100
AcDbVertex
100
AcDb2dVertex
 10
-171.9023200638814
 20
665.2893937537779
 30
0.0
 70
     8
  0
VERTEX
  5
14C
330
12E
100
AcDbEntity
  8
0
  6
Continuous
 62
     7
100
AcDbVertex
100
AcDb2dVertex
 10
-163.5365859073835
 20
659.0521340799501
 30
0.0
 70
     8
  0
VERTEX
  5
14D
330
12E
100
AcDbEntity
  8
0
  6
Continuous
 62
     7
100
AcDbVertex
100
AcDb2dVertex
 10
-155.2136167738297
 20
653.1698619417118
 30
0.0
 70
     8
  0
VERTEX
  5
14E
330
12E
100
AcDbEntity
  8
0
  6
Continuous
 62
     7
100
AcDbVertex
100
AcDb2dVertex
 10
-146.9148685382266
 20
647.6448480482459
 30
0.0
 70
     8
  0
VERTEX
  5
14F
330
12E
100
AcDbEntity
  8
0
  6
Continuous
 62
     7
100
AcDbVertex
100
AcDb2dVertex
 10
-138.6217970755807
 20
642.4793631087351
 30
0.0
 70
     8
  0
VERTEX
  5
150
330
12E
100
AcDbEntity
  8
0
  6
Continuous
 62
     7
100
AcDbVertex
100
AcDb2dVertex
 10
-130.3158582608985
 20
637.6756778323627
 30
0.0
 70
     8
  0
VERTEX
  5
151
330
12E
100
AcDbEntity
  8
0
  6
Continuous
 62
     7
100
AcDbVertex
100
AcDb2dVertex
 10
-121.9785079691865
 20
633.2360629283111
 30
0.0
 70
     8
  0
VERTEX
  5
152
330
12E
100
AcDbEntity
  8
0
  6
Continuous
 62
     7
100
AcDbVertex
100
AcDb2dVertex
 10
-113.5912020754513
 20
629.1627891057634
 30
0.0
 70
     8
  0
VERTEX
  5
153
330
12E
100
AcDbEntity
  8
0
  6
Continuous
 62
     7
100
AcDbVertex
100
AcDb2dVertex
 10
-105.1353964546993
 20
625.4581270739025
 30
0.0
 70
     8
  0
VERTEX
  5
154
330
12E
100
AcDbEntity
  8
0
  6
Continuous
 62
     7
100
AcDbVertex
100
AcDb2dVertex
 10
-96.5925469819371
 20
622.124347541911
 30
0.0
 70
     8
  0
VERTEX
  5
155
330
12E
100
AcDbEntity
  8
0
  6
Continuous
 62
     7
100
AcDbVertex
100
AcDb2dVertex
 10
-87.94410953217123
 20
619.1637212189722
 30
0.0
 70
     8
  0
VERTEX
  5
156
330
12E
100
AcDbEntity
  8
0
  6
Continuous
 62
     7
100
AcDbVertex
100
AcDb2dVertex
 10
-79.17153998040814
 20
616.5785188142687
 30
0.0
 70
     8
  0
VERTEX
  5
157
330
12E
100
AcDbEntity
  8
0
  6
Continuous
 62
     7
100
AcDbVertex
100
AcDb2dVertex
 10
-70.25629420165441
 20
614.3710110369836
 30
0.0
 70
     8
  0
VERTEX
  5
158
330
12E
100
AcDbEntity
  8
0
  6
Continuous
 62
     7
100
AcDbVertex
100
AcDb2dVertex
 10
-61.17982807091652
 20
612.5434685962995
 30
0.0
 70
     8
  0
VERTEX
  5
159
330
12E
100
AcDbEntity
  8
0
  6
Continuous
 62
     7
100
AcDbVertex
100
AcDb2dVertex
 10
-51.92359746320105
 20
611.0981622013994
 30
0.0
 70
     8
  0
VERTEX
  5
15A
330
12E
100
AcDbEntity
  8
0
  6
Continuous
 62
     7
100
AcDbVertex
100
AcDb2dVertex
 10
-42.46905825351444
 20
610.0373625614662
 30
0.0
 70
     8
  0
VERTEX
  5
15B
330
12E
100
AcDbEntity
  8
0
  6
Continuous
 62
     7
100
AcDbVertex
100
AcDb2dVertex
 10
-32.79766631686324
 20
609.3633403856828
 30
0.0
 70
     8
  0
VERTEX
  5
15C
330
12E
100
AcDbEntity
  8
0
  6
Continuous
 62
     7
100
AcDbVertex
100
AcDb2dVertex
 10
-22.89087752825398
 20
609.0783663832319
 30
0.0
 70
     8
  0
VERTEX
  5
15D
330
12E
100
AcDbEntity
  8
0
  6
Continuous
 62
     7
100
AcDbVertex
100
AcDb2dVertex
 10
-12.7301477626932
 20
609.1847112632967
 30
0.0
 70
     8
  0
SEQEND
  5
12F
330
12E
100
AcDbEntity
  8
0
  6
Continuous
 62
     7
370
     0
  0
POLYLINE
  5
160
102
{ACAD_XDICTIONARY
360
15E
102
}
330
1F
100
AcDbEntity
  8
0
  6
Continuous
 62
     7
370
     0
100
AcDb2dPolyline
 66
     1
 10
0.0
 20
0.0
 30
0.0
 70
   132
 75
     6
  0
VERTEX
  5
162
330
160
100
AcDbEntity
  8
0
  6
Continuous
 62
     7
100
AcDbVertex
100
AcDb2dVertex
 10
-10.71173960013743
 20
609.1847112632965
 30
0.0
 70
    16
  0
VERTEX
  5
163
330
160
100
AcDbEntity
  8
0
  6
Continuous
 62
     7
100
AcDbVertex
100
AcDb2dVertex
 10
-6.674923275025947
 20
597.0742622879619
 30
0.0
 70
    16
  0
VERTEX
  5
164
330
160
100
AcDbEntity
  8
0
  6
Continuous
 62
     7
100
AcDbVertex
100
AcDb2dVertex
 10
-10.71173960013743
 20
609.1847112632965
 30
0.0
 70
     8
  0
VERTEX
  5
165
330
160
100
AcDbEntity
  8
0
  6
Continuous
 62
     7
100
AcDbVertex
100
AcDb2dVertex
 10
-10.50989878388186
 20
608.5791888145299
 30
0.0
 70
     8
  0
VERTEX
  5
166
330
160
100
AcDbEntity
  8
0
  6
Continuous
 62
     7
100
AcDbVertex
100
AcDb2dVertex
 10
-10.30805796762628
 20
607.973666365763
 30
0.0
 70
     8
  0
VERTEX
  5
167
330
160
100
AcDbEntity
  8
0
  6
Continuous
 62
     7
100
AcDbVertex
100
AcDb2dVertex
 10
-10.10621715137071
 20
607.3681439169964
 30
0.0
 70
     8
  0
VERTEX
  5
168
330
160
100
AcDbEntity
  8
0
  6
Continuous
 62
     7
100
AcDbVertex
100
AcDb2dVertex
 10
-9.904376335115137
 20
606.7626214682297
 30
0.0
 70
     8
  0
VERTEX
  5
169
330
160
100
AcDbEntity
  8
0
  6
Continuous
 62
     7
100
AcDbVertex
100
AcDb2dVertex
 10
-9.702535518859563
 20
606.1570990194629
 30
0.0
 70
     8
  0
VERTEX
  5
16A
330
160
100
AcDbEntity
  8
0
  6
Continuous
 62
     7
100
AcDbVertex
100
AcDb2dVertex
 10
-9.500694702603987
 20
605.5515765706962
 30
0.0
 70
     8
  0
VERTEX
  5
16B
330
160
100
AcDbEntity
  8
0
  6
Continuous
 62
     7
100
AcDbVertex
100
AcDb2dVertex
 10
-9.298853886348413
 20
604.9460541219295
 30
0.0
 70
     8
  0
VERTEX
  5
16C
330
160
100
AcDbEntity
  8
0
  6
Continuous
 62
     7
100
AcDbVertex
100
AcDb2dVertex
 10
-9.097013070092839
 20
604.3405316731627
 30
0.0
 70
     8
  0
VERTEX
  5
16D
330
160
100
AcDbEntity
  8
0
  6
Continuous
 62
     7
100
AcDbVertex
100
AcDb2dVertex
 10
-8.895172253837263
 20
603.735009224396
 30
0.0
 70
     8
  0
VERTEX
  5
16E
330
160
100
AcDbEntity
  8
0
  6
Continuous
 62
     7
100
AcDbVertex
100
AcDb2dVertex
 10
-8.693331437581689
 20
603.1294867756292
 30
0.0
 70
     8
  0
VERTEX
  5
16F
330
160
100
AcDbEntity
  8
0
  6
Continuous
 62
     7
100
AcDbVertex
100
AcDb2dVertex
 10
-8.491490621326115
 20
602.5239643268625
 30
0.0
 70
     8
  0
VERTEX
  5
170
330
160
100
AcDbEntity
  8
0
  6
Continuous
 62
     7
100
AcDbVertex
100
AcDb2dVertex
 10
-8.28964980507054
 20
601.9184418780958
 30
0.0
 70
     8
  0
VERTEX
  5
171
330
160
100
AcDbEntity
  8
0
  6
Continuous
 62
     7
100
AcDbVertex
100
AcDb2dVertex
 10
-8.087808988814967
 20
601.312919429329
 30
0.0
 70
     8
  0
VERTEX
  5
172
330
160
100
AcDbEntity
  8
0
  6
Continuous
 62
     7
100
AcDbVertex
100
AcDb2dVertex
 10
-7.885968172559391
 20
600.7073969805623
 30
0.0
 70
     8
  0
VERTEX
  5
173
330
160
100
AcDbEntity
  8
0
  6
Continuous
 62
     7
100
AcDbVertex
100
AcDb2dVertex
 10
-7.684127356303817
 20
600.1018745317956
 30
0.0
 70
     8
  0
VERTEX
  5
174
330
160
100
AcDbEntity
  8
0
  6
Continuous
 62
     7
100
AcDbVertex
100
AcDb2dVertex
 10
-7.482286540048243
 20
599.4963520830288
 30
0.0
 70
     8
  0
VERTEX
  5
175
330
160
100
AcDbEntity
  8
0
  6
Continuous
 62
     7
100
AcDbVertex
100
AcDb2dVertex
 10
-7.280445723792669
 20
598.8908296342621
 30
0.0
 70
     8
  0
VERTEX
  5
176
330
160
100
AcDbEntity
  8
0
  6
Continuous
 62
     7
100
AcDbVertex
100
AcDb2dVertex
 10
-7.078604907537094
 20
598.2853071854954
 30
0.0
 70
     8
  0
VERTEX
  5
177
330
160
100
AcDbEntity
  8
0
  6
Continuous
 62
     7
100
AcDbVertex
100
AcDb2dVertex
 10
-6.87676409128152
 20
597.6797847367286
 30
0.0
 70
     8
  0
VERTEX
  5
178
330
160
100
AcDbEntity
  8
0
  6
Continuous
 62
     7
100
AcDbVertex
100
AcDb2dVertex
 10
-6.674923275025946
 20
597.0742622879619
 30
0.0
 70
     8
  0
SEQEND
  5
161
330
160
100
AcDbEntity
  8
0
  6
Continuous
 62
     7
370
     0
  0
POLYLINE
  5
17B
102
{ACAD_XDICTIONARY
360
179
102
}
330
1F
100
AcDbEntity
  8
0
  6
Continuous
 62
     7
370
     0
100
AcDb2dPolyline
 66
     1
 10
0.0
 20
0.0
 30
0.0
 70
   132
 75
     6
  0
VERTEX
  5
17D
330
17B
100
AcDbEntity
  8
0
  6
Continuous
 62
     7
100
AcDbVertex
100
AcDb2dVertex
 10
-408.338147623623
 20
843.3200581197651
 30
0.0
 70
    16
  0
VERTEX
  5
17E
330
17B
100
AcDbEntity
  8
0
  6
Continuous
 62
     7
100
AcDbVertex
100
AcDb2dVertex
 10
-341.7306782592827
 20
792.8598540558711
 30
0.0
 70
    16
  0
VERTEX
  5
17F
330
17B
100
AcDbEntity
  8
0
  6
Continuous
 62
     7
100
AcDbVertex
100
AcDb2dVertex
 10
-281.1784333826099
 20
736.3444255043097
 30
0.0
 70
    16
  0
VERTEX
  5
180
330
17B
100
AcDbEntity
  8
0
  6
Continuous
 62
     7
100
AcDbVertex
100
AcDb2dVertex
 10
-200.4421068803793
 20
663.6817316523022
 30
0.0
 70
    16
  0
VERTEX
  5
181
330
17B
100
AcDbEntity
  8
0
  6
Continuous
 62
     7
100
AcDbVertex
100
AcDb2dVertex
 10
-123.7425967032602
 20
611.2031194258525
 30
0.0
 70
    16
  0
VERTEX
  5
182
330
17B
100
AcDbEntity
  8
0
  6
Continuous
 62
     7
100
AcDbVertex
100
AcDb2dVertex
 10
-51.07990285125265
 20
586.9822214751831
 30
0.0
 70
    16
  0
VERTEX
  5
183
330
17B
100
AcDbEntity
  8
0
  6
Continuous
 62
     7
100
AcDbVertex
100
AcDb2dVertex
 10
-16.76696408780475
 20
595.0558541254063
 30
0.0
 70
    16
  0
VERTEX
  5
184
330
17B
100
AcDbEntity
  8
0
  6
Continuous
 62
     7
100
AcDbVertex
100
AcDb2dVertex
 10
-408.338147623623
 20
843.3200581197651
 30
0.0
 70
     8
  0
VERTEX
  5
185
330
17B
100
AcDbEntity
  8
0
  6
Continuous
 62
     7
100
AcDbVertex
100
AcDb2dVertex
 10
-398.6151811534015
 20
835.9150231733888
 30
0.0
 70
     8
  0
VERTEX
  5
186
330
17B
100
AcDbEntity
  8
0
  6
Continuous
 62
     7
100
AcDbVertex
100
AcDb2dVertex
 10
-389.4111978819771
 20
828.8278875126148
 30
0.0
 70
     8
  0
VERTEX
  5
187
330
17B
100
AcDbEntity
  8
0
  6
Continuous
 62
     7
100
AcDbVertex
100
AcDb2dVertex
 10
-380.700210804257
 20
822.0435130762243
 30
0.0
 70
     8
  0
VERTEX
  5
188
330
17B
100
AcDbEntity
  8
0
  6
Continuous
 62
     7
100
AcDbVertex
100
AcDb2dVertex
 10
-372.4562329151482
 20
815.5467618029978
 30
0.0
 70
     8
  0
VERTEX
  5
189
330
17B
100
AcDbEntity
  8
0
  6
Continuous
 62
     7
100
AcDbVertex
100
AcDb2dVertex
 10
-364.6532772095579
 20
809.3224956317166
 30
0.0
 70
     8
  0
VERTEX
  5
18A
330
17B
100
AcDbEntity
  8
0
  6
Continuous
 62
     7
100
AcDbVertex
100
AcDb2dVertex
 10
-357.2653566823931
 20
803.355576501161
 30
0.0
 70
     8
  0
VERTEX
  5
18B
330
17B
100
AcDbEntity
  8
0
  6
Continuous
 62
     7
100
AcDbVertex
100
AcDb2dVertex
 10
-350.2664843285609
 20
797.6308663501123
 30
0.0
 70
     8
  0
VERTEX
  5
18C
330
17B
100
AcDbEntity
  8
0
  6
Continuous
 62
     7
100
AcDbVertex
100
AcDb2dVertex
 10
-343.6306731429685
 20
792.1332271173509
 30
0.0
 70
     8
  0
VERTEX
  5
18D
330
17B
100
AcDbEntity
  8
0
  6
Continuous
 62
     7
100
AcDbVertex
100
AcDb2dVertex
 10
-337.3319361205228
 20
786.8475207416581
 30
0.0
 70
     8
  0
VERTEX
  5
18E
330
17B
100
AcDbEntity
  8
0
  6
Continuous
 62
     7
100
AcDbVertex
100
AcDb2dVertex
 10
-331.3442862561311
 20
781.7586091618143
 30
0.0
 70
     8
  0
VERTEX
  5
18F
330
17B
100
AcDbEntity
  8
0
  6
Continuous
 62
     7
100
AcDbVertex
100
AcDb2dVertex
 10
-325.6417365447004
 20
776.8513543166007
 30
0.0
 70
     8
  0
VERTEX
  5
190
330
17B
100
AcDbEntity
  8
0
  6
Continuous
 62
     7
100
AcDbVertex
100
AcDb2dVertex
 10
-320.1982999811377
 20
772.1106181447979
 30
0.0
 70
     8
  0
VERTEX
  5
191
330
17B
100
AcDbEntity
  8
0
  6
Continuous
 62
     7
100
AcDbVertex
100
AcDb2dVertex
 10
-314.9879895603503
 20
767.5212625851867
 30
0.0
 70
     8
  0
VERTEX
  5
192
330
17B
100
AcDbEntity
  8
0
  6
Continuous
 62
     7
100
AcDbVertex
100
AcDb2dVertex
 10
-309.9848182772452
 20
763.068149576548
 30
0.0
 70
     8
  0
VERTEX
  5
193
330
17B
100
AcDbEntity
  8
0
  6
Continuous
 62
     7
100
AcDbVertex
100
AcDb2dVertex
 10
-305.1627991267293
 20
758.7361410576627
 30
0.0
 70
     8
  0
VERTEX
  5
194
330
17B
100
AcDbEntity
  8
0
  6
Continuous
 62
     7
100
AcDbVertex
100
AcDb2dVertex
 10
-300.4959451037101
 20
754.5100989673116
 30
0.0
 70
     8
  0
VERTEX
  5
195
330
17B
100
AcDbEntity
  8
0
  6
Continuous
 62
     7
100
AcDbVertex
100
AcDb2dVertex
 10
-295.9582692030943
 20
750.3748852442754
 30
0.0
 70
     8
  0
VERTEX
  5
196
330
17B
100
AcDbEntity
  8
0
  6
Continuous
 62
     7
100
AcDbVertex
100
AcDb2dVertex
 10
-291.5237844197892
 20
746.3153618273351
 30
0.0
 70
     8
  0
VERTEX
  5
197
330
17B
100
AcDbEntity
  8
0
  6
Continuous
 62
     7
100
AcDbVertex
100
AcDb2dVertex
 10
-287.1665037487019
 20
742.3163906552716
 30
0.0
 70
     8
  0
VERTEX
  5
198
330
17B
100
AcDbEntity
  8
0
  6
Continuous
 62
     7
100
AcDbVertex
100
AcDb2dVertex
 10
-282.8604401847395
 20
738.3628336668654
 30
0.0
 70
     8
  0
VERTEX
  5
199
330
17B
100
AcDbEntity
  8
0
  6
Continuous
 62
     7
100
AcDbVertex
100
AcDb2dVertex
 10
-278.5838117398145
 20
734.4422440117812
 30
0.0
 70
     8
  0
VERTEX
  5
19A
330
17B
100
AcDbEntity
  8
0
  6
Continuous
 62
     7
100
AcDbVertex
100
AcDb2dVertex
 10
-274.3316564938602
 20
730.5529396832164
 30
0.0
 70
     8
  0
VERTEX
  5
19B
330
17B
100
AcDbEntity
  8
0
  6
Continuous
 62
     7
100
AcDbVertex
100
AcDb2dVertex
 10
-270.103217543816
 20
726.6959298852526
 30
0.0
 70
     8
  0
VERTEX
  5
19C
330
17B
100
AcDbEntity
  8
0
  6
Continuous
 62
     7
100
AcDbVertex
100
AcDb2dVertex
 10
-265.897737986621
 20
722.8722238219708
 30
0.0
 70
     8
  0
VERTEX
  5
19D
330
17B
100
AcDbEntity
  8
0
  6
Continuous
 62
     7
100
AcDbVertex
100
AcDb2dVertex
 10
-261.714460919214
 20
719.0828306974527
 30
0.0
 70
     8
  0
VERTEX
  5
19E
330
17B
100
AcDbEntity
  8
0
  6
Continuous
 62
     7
100
AcDbVertex
100
AcDb2dVertex
 10
-257.5526294385342
 20
715.3287597157791
 30
0.0
 70
     8
  0
VERTEX
  5
19F
330
17B
100
AcDbEntity
  8
0
  6
Continuous
 62
     7
100
AcDbVertex
100
AcDb2dVertex
 10
-253.4114866415205
 20
711.6110200810316
 30
0.0
 70
     8
  0
VERTEX
  5
1A0
330
17B
100
AcDbEntity
  8
0
  6
Continuous
 62
     7
100
AcDbVertex
100
AcDb2dVertex
 10
-249.2902756251121
 20
707.9306209972915
 30
0.0
 70
     8
  0
VERTEX
  5
1A1
330
17B
100
AcDbEntity
  8
0
  6
Continuous
 62
     7
100
AcDbVertex
100
AcDb2dVertex
 10
-245.188239486248
 20
704.2885716686397
 30
0.0
 70
     8
  0
VERTEX
  5
1A2
330
17B
100
AcDbEntity
  8
0
  6
Continuous
 62
     7
100
AcDbVertex
100
AcDb2dVertex
 10
-241.1046213218672
 20
700.6858812991579
 30
0.0
 70
     8
  0
VERTEX
  5
1A3
330
17B
100
AcDbEntity
  8
0
  6
Continuous
 62
     7
100
AcDbVertex
100
AcDb2dVertex
 10
-237.0386642289088
 20
697.1235590929273
 30
0.0
 70
     8
  0
VERTEX
  5
1A4
330
17B
100
AcDbEntity
  8
0
  6
Continuous
 62
     7
100
AcDbVertex
100
AcDb2dVertex
 10
-232.9896113043118
 20
693.6026142540289
 30
0.0
 70
     8
  0
VERTEX
  5
1A5
330
17B
100
AcDbEntity
  8
0
  6
Continuous
 62
     7
100
AcDbVertex
100
AcDb2dVertex
 10
-228.9567056450151
 20
690.1240559865442
 30
0.0
 70
     8
  0
VERTEX
  5
1A6
330
17B
100
AcDbEntity
  8
0
  6
Continuous
 62
     7
100
AcDbVertex
100
AcDb2dVertex
 10
-224.9391903479581
 20
686.6888934945546
 30
0.0
 70
     8
  0
VERTEX
  5
1A7
330
17B
100
AcDbEntity
  8
0
  6
Continuous
 62
     7
100
AcDbVertex
100
AcDb2dVertex
 10
-220.9363085100795
 20
683.298135982141
 30
0.0
 70
     8
  0
VERTEX
  5
1A8
330
17B
100
AcDbEntity
  8
0
  6
Continuous
 62
     7
100
AcDbVertex
100
AcDb2dVertex
 10
-216.9473032283185
 20
679.952792653385
 30
0.0
 70
     8
  0
VERTEX
  5
1A9
330
17B
100
AcDbEntity
  8
0
  6
Continuous
 62
     7
100
AcDbVertex
100
AcDb2dVertex
 10
-212.9714175996141
 20
676.653872712368
 30
0.0
 70
     8
  0
VERTEX
  5
1AA
330
17B
100
AcDbEntity
  8
0
  6
Continuous
 62
     7
100
AcDbVertex
100
AcDb2dVertex
 10
-209.0078947209054
 20
673.4023853631708
 30
0.0
 70
     8
  0
VERTEX
  5
1AB
330
17B
100
AcDbEntity
  8
0
  6
Continuous
 62
     7
100
AcDbVertex
100
AcDb2dVertex
 10
-205.0559776891314
 20
670.199339809875
 30
0.0
 70
     8
  0
VERTEX
  5
1AC
330
17B
100
AcDbEntity
  8
0
  6
Continuous
 62
     7
100
AcDbVertex
100
AcDb2dVertex
 10
-201.1149096012311
 20
667.0457452565619
 30
0.0
 70
     8
  0
VERTEX
  5
1AD
330
17B
100
AcDbEntity
  8
0
  6
Continuous
 62
     7
100
AcDbVertex
100
AcDb2dVertex
 10
-197.1833028015929
 20
663.9423586062924
 30
0.0
 70
     8
  0
VERTEX
  5
1AE
330
17B
100
AcDbEntity
  8
0
  6
Continuous
 62
     7
100
AcDbVertex
100
AcDb2dVertex
 10
-193.2572466244016
 20
660.888927558046
 30
0.0
 70
     8
  0
VERTEX
  5
1AF
330
17B
100
AcDbEntity
  8
0
  6
Continuous
 62
     7
100
AcDbVertex
100
AcDb2dVertex
 10
-189.3321996512916
 20
657.8849475097823
 30
0.0
 70
     8
  0
VERTEX
  5
1B0
330
17B
100
AcDbEntity
  8
0
  6
Continuous
 62
     7
100
AcDbVertex
100
AcDb2dVertex
 10
-185.4036204638971
 20
654.9299138594606
 30
0.0
 70
     8
  0
VERTEX
  5
1B1
330
17B
100
AcDbEntity
  8
0
  6
Continuous
 62
     7
100
AcDbVertex
100
AcDb2dVertex
 10
-181.4669676438524
 20
652.0233220050402
 30
0.0
 70
     8
  0
VERTEX
  5
1B2
330
17B
100
AcDbEntity
  8
0
  6
Continuous
 62
     7
100
AcDbVertex
100
AcDb2dVertex
 10
-177.5176997727918
 20
649.1646673444804
 30
0.0
 70
     8
  0
VERTEX
  5
1B3
330
17B
100
AcDbEntity
  8
0
  6
Continuous
 62
     7
100
AcDbVertex
100
AcDb2dVertex
 10
-173.5512754323493
 20
646.3534452757409
 30
0.0
 70
     8
  0
VERTEX
  5
1B4
330
17B
100
AcDbEntity
  8
0
  6
Continuous
 62
     7
100
AcDbVertex
100
AcDb2dVertex
 10
-169.5631532041594
 20
643.5891511967807
 30
0.0
 70
     8
  0
VERTEX
  5
1B5
330
17B
100
AcDbEntity
  8
0
  6
Continuous
 62
     7
100
AcDbVertex
100
AcDb2dVertex
 10
-165.5487916698563
 20
640.8712805055591
 30
0.0
 70
     8
  0
VERTEX
  5
1B6
330
17B
100
AcDbEntity
  8
0
  6
Continuous
 62
     7
100
AcDbVertex
100
AcDb2dVertex
 10
-161.5036494110743
 20
638.1993286000359
 30
0.0
 70
     8
  0
VERTEX
  5
1B7
330
17B
100
AcDbEntity
  8
0
  6
Continuous
 62
     7
100
AcDbVertex
100
AcDb2dVertex
 10
-157.4231850094475
 20
635.5727908781702
 30
0.0
 70
     8
  0
VERTEX
  5
1B8
330
17B
100
AcDbEntity
  8
0
  6
Continuous
 62
     7
100
AcDbVertex
100
AcDb2dVertex
 10
-153.3028570466102
 20
632.9911627379212
 30
0.0
 70
     8
  0
VERTEX
  5
1B9
330
17B
100
AcDbEntity
  8
0
  6
Continuous
 62
     7
100
AcDbVertex
100
AcDb2dVertex
 10
-149.1381241041967
 20
630.4539395772484
 30
0.0
 70
     8
  0
VERTEX
  5
1BA
330
17B
100
AcDbEntity
  8
0
  6
Continuous
 62
     7
100
AcDbVertex
100
AcDb2dVertex
 10
-144.9244447638413
 20
627.9606167941113
 30
0.0
 70
     8
  0
VERTEX
  5
1BB
330
17B
100
AcDbEntity
  8
0
  6
Continuous
 62
     7
100
AcDbVertex
100
AcDb2dVertex
 10
-140.657277607178
 20
625.5106897864691
 30
0.0
 70
     8
  0
VERTEX
  5
1BC
330
17B
100
AcDbEntity
  8
0
  6
Continuous
 62
     7
100
AcDbVertex
100
AcDb2dVertex
 10
-136.3320812158413
 20
623.1036539522812
 30
0.0
 70
     8
  0
VERTEX
  5
1BD
330
17B
100
AcDbEntity
  8
0
  6
Continuous
 62
     7
100
AcDbVertex
100
AcDb2dVertex
 10
-131.9443141714654
 20
620.739004689507
 30
0.0
 70
     8
  0
VERTEX
  5
1BE
330
17B
100
AcDbEntity
  8
0
  6
Continuous
 62
     7
100
AcDbVertex
100
AcDb2dVertex
 10
-127.4894350556845
 20
618.4162373961059
 30
0.0
 70
     8
  0
VERTEX
  5
1BF
330
17B
100
AcDbEntity
  8
0
  6
Continuous
 62
     7
100
AcDbVertex
100
AcDb2dVertex
 10
-122.9629024501329
 20
616.1348474700371
 30
0.0
 70
     8
  0
VERTEX
  5
1C0
330
17B
100
AcDbEntity
  8
0
  6
Continuous
 62
     7
100
AcDbVertex
100
AcDb2dVertex
 10
-118.3601749364448
 20
613.8943303092601
 30
0.0
 70
     8
  0
VERTEX
  5
1C1
330
17B
100
AcDbEntity
  8
0
  6
Continuous
 62
     7
100
AcDbVertex
100
AcDb2dVertex
 10
-113.6783931030566
 20
611.6964520209171
 30
0.0
 70
     8
  0
VERTEX
  5
1C2
330
17B
100
AcDbEntity
  8
0
  6
Continuous
 62
     7
100
AcDbVertex
100
AcDb2dVertex
 10
-108.9214255656132
 20
609.5520615488819
 30
0.0
 70
     8
  0
VERTEX
  5
1C3
330
17B
100
AcDbEntity
  8
0
  6
Continuous
 62
     7
100
AcDbVertex
100
AcDb2dVertex
 10
-104.0948229465616
 20
607.4742785462109
 30
0.0
 70
     8
  0
VERTEX
  5
1C4
330
17B
100
AcDbEntity
  8
0
  6
Continuous
 62
     7
100
AcDbVertex
100
AcDb2dVertex
 10
-99.20413586834887
 20
605.4762226659609
 30
0.0
 70
     8
  0
VERTEX
  5
1C5
330
17B
100
AcDbEntity
  8
0
  6
Continuous
 62
     7
100
AcDbVertex
100
AcDb2dVertex
 10
-94.25491495342202
 20
603.5710135611885
 30
0.0
 70
     8
  0
VERTEX
  5
1C6
330
17B
100
AcDbEntity
  8
0
  6
Continuous
 62
     7
100
AcDbVertex
100
AcDb2dVertex
 10
-89.2527108242281
 20
601.7717708849502
 30
0.0
 70
     8
  0
VERTEX
  5
1C7
330
17B
100
AcDbEntity
  8
0
  6
Continuous
 62
     7
100
AcDbVertex
100
AcDb2dVertex
 10
-84.2030741032141
 20
600.0916142903029
 30
0.0
 70
     8
  0
VERTEX
  5
1C8
330
17B
100
AcDbEntity
  8
0
  6
Continuous
 62
     7
100
AcDbVertex
100
AcDb2dVertex
 10
-79.11155541282709
 20
598.5436634303028
 30
0.0
 70
     8
  0
VERTEX
  5
1C9
330
17B
100
AcDbEntity
  8
0
  6
Continuous
 62
     7
100
AcDbVertex
100
AcDb2dVertex
 10
-73.98370537551405
 20
597.1410379580067
 30
0.0
 70
     8
  0
VERTEX
  5
1CA
330
17B
100
AcDbEntity
  8
0
  6
Continuous
 62
     7
100
AcDbVertex
100
AcDb2dVertex
 10
-68.82507461372204
 20
595.8968575264713
 30
0.0
 70
     8
  0
VERTEX
  5
1CB
330
17B
100
AcDbEntity
  8
0
  6
Continuous
 62
     7
100
AcDbVertex
100
AcDb2dVertex
 10
-63.64121374989809
 20
594.824241788753
 30
0.0
 70
     8
  0
VERTEX
  5
1CC
330
17B
100
AcDbEntity
  8
0
  6
Continuous
 62
     7
100
AcDbVertex
100
AcDb2dVertex
 10
-58.43767340648924
 20
593.9363103979088
 30
0.0
 70
     8
  0
VERTEX
  5
1CD
330
17B
100
AcDbEntity
  8
0
  6
Continuous
 62
     7
100
AcDbVertex
100
AcDb2dVertex
 10
-53.22000420594248
 20
593.2461830069949
 30
0.0
 70
     8
  0
VERTEX
  5
1CE
330
17B
100
AcDbEntity
  8
0
  6
Continuous
 62
     7
100
AcDbVertex
100
AcDb2dVertex
 10
-47.99375677070486
 20
592.7669792690681
 30
0.0
 70
     8
  0
VERTEX
  5
1CF
330
17B
100
AcDbEntity
  8
0
  6
Continuous
 62
     7
100
AcDbVertex
100
AcDb2dVertex
 10
-42.76448172322342
 20
592.511818837185
 30
0.0
 70
     8
  0
VERTEX
  5
1D0
330
17B
100
AcDbEntity
  8
0
  6
Continuous
 62
     7
100
AcDbVertex
100
AcDb2dVertex
 10
-37.53772968594517
 20
592.4938213644023
 30
0.0
 70
     8
  0
VERTEX
  5
1D1
330
17B
100
AcDbEntity
  8
0
  6
Continuous
 62
     7
100
AcDbVertex
100
AcDb2dVertex
 10
-32.31905128131714
 20
592.7261065037764
 30
0.0
 70
     8
  0
VERTEX
  5
1D2
330
17B
100
AcDbEntity
  8
0
  6
Continuous
 62
     7
100
AcDbVertex
100
AcDb2dVertex
 10
-27.11399713178636
 20
593.2217939083641
 30
0.0
 70
     8
  0
VERTEX
  5
1D3
330
17B
100
AcDbEntity
  8
0
  6
Continuous
 62
     7
100
AcDbVertex
100
AcDb2dVertex
 10
-21.92811785979987
 20
593.9940032312219
 30
0.0
 70
     8
  0
VERTEX
  5
1D4
330
17B
100
AcDbEntity
  8
0
  6
Continuous
 62
     7
100
AcDbVertex
100
AcDb2dVertex
 10
-16.76696408780469
 20
595.0558541254064
 30
0.0
 70
     8
  0
SEQEND
  5
17C
330
17B
100
AcDbEntity
  8
0
  6
Continuous
 62
     7
370
     0
  0
CIRCLE
  5
1D7
102
{ACAD_XDICTIONARY
360
1D5
102
}
330
1F
100
AcDbEntity
  8
0
  6
Continuous
 62
     7
370
     0
100
AcDbCircle
 10
-477.7368263687807
 20
1592.149486434009
 30
0.0
 40
42.91194615516315
  0
POLYLINE
  5
1DA
102
{ACAD_XDICTIONARY
360
1D8
102
}
330
1F
100
AcDbEntity
  8
0
  6
Continuous
 62
     7
370
     0
100
AcDb2dPolyline
 66
     1
 10
0.0
 20
0.0
 30
0.0
 70
   132
 75
     6
  0
VERTEX
  5
1DC
330
1DA
100
AcDbEntity
  8
0
  6
Continuous
 62
     7
100
AcDbVertex
100
AcDb2dVertex
 10
-441.4054793349941
 20
1559.854955772968
 30
0.0
 70
    16
  0
VERTEX
  5
1DD
330
1DA
100
AcDbEntity
  8
0
  6
Continuous
 62
     7
100
AcDbVertex
100
AcDb2dVertex
 10
-360.6691528327634
 20
1467.008180295403
 30
0.0
 70
    16
  0
VERTEX
  5
1DE
330
1DA
100
AcDbEntity
  8
0
  6
Continuous
 62
     7
100
AcDbVertex
100
AcDb2dVertex
 10
2.644316427273949
 20
1345.903690542057
 30
0.0
 70
    16
  0
VERTEX
  5
1DF
330
1DA
100
AcDbEntity
  8
0
  6
Continuous
 62
     7
100
AcDbVertex
100
AcDb2dVertex
 10
-441.4054793349941
 20
1559.854955772968
 30
0.0
 70
     8
  0
VERTEX
  5
1E0
330
1DA
100
AcDbEntity
  8
0
  6
Continuous
 62
     7
100
AcDbVertex
100
AcDb2dVertex
 10
-432.6254038278765
 20
1550.499633939522
 30
0.0
 70
     8
  0
VERTEX
  5
1E1
330
1DA
100
AcDbEntity
  8
0
  6
Continuous
 62
     7
100
AcDbVertex
100
AcDb2dVertex
 10
-422.4324426069699
 20
1541.003023534697
 30
0.0
 70
     8
  0
VERTEX
  5
1E2
330
1DA
100
AcDbEntity
  8
0
  6
Continuous
 62
     7
100
AcDbVertex
100
AcDb2dVertex
 10
-410.8265956722742
 20
1531.365124558493
 30
0.0
 70
     8
  0
VERTEX
  5
1E3
330
1DA
100
AcDbEntity
  8
0
  6
Continuous
 62
     7
100
AcDbVertex
100
AcDb2dVertex
 10
-397.8078630237895
 20
1521.585937010911
 30
0.0
 70
     8
  0
VERTEX
  5
1E4
330
1DA
100
AcDbEntity
  8
0
  6
Continuous
 62
     7
100
AcDbVertex
100
AcDb2dVertex
 10
-383.3762446615157
 20
1511.665460891949
 30
0.0
 70
     8
  0
VERTEX
  5
1E5
330
1DA
100
AcDbEntity
  8
0
  6
Continuous
 62
     7
100
AcDbVertex
100
AcDb2dVertex
 10
-367.531740585453
 20
1501.603696201609
 30
0.0
 70
     8
  0
VERTEX
  5
1E6
330
1DA
100
AcDbEntity
  8
0
  6
Continuous
 62
     7
100
AcDbVertex
100
AcDb2dVertex
 10
-350.2743507956012
 20
1491.400642939889
 30
0.0
 70
     8
  0
VERTEX
  5
1E7
330
1DA
100
AcDbEntity
  8
0
  6
Continuous
 62
     7
100
AcDbVertex
100
AcDb2dVertex
 10
-331.6040752919603
 20
1481.056301106791
 30
0.0
 70
     8
  0
VERTEX
  5
1E8
330
1DA
100
AcDbEntity
  8
0
  6
Continuous
 62
     7
100
AcDbVertex
100
AcDb2dVertex
 10
-311.5209140745305
 20
1470.570670702314
 30
0.0
 70
     8
  0
VERTEX
  5
1E9
330
1DA
100
AcDbEntity
  8
0
  6
Continuous
 62
     7
100
AcDbVertex
100
AcDb2dVertex
 10
-290.0248671433116
 20
1459.943751726458
 30
0.0
 70
     8
  0
VERTEX
  5
1EA
330
1DA
100
AcDbEntity
  8
0
  6
Continuous
 62
     7
100
AcDbVertex
100
AcDb2dVertex
 10
-267.1159344983036
 20
1449.175544179223
 30
0.0
 70
     8
  0
VERTEX
  5
1EB
330
1DA
100
AcDbEntity
  8
0
  6
Continuous
 62
     7
100
AcDbVertex
100
AcDb2dVertex
 10
-242.7941161395067
 20
1438.266048060609
 30
0.0
 70
     8
  0
VERTEX
  5
1EC
330
1DA
100
AcDbEntity
  8
0
  6
Continuous
 62
     7
100
AcDbVertex
100
AcDb2dVertex
 10
-217.0594120669207
 20
1427.215263370616
 30
0.0
 70
     8
  0
VERTEX
  5
1ED
330
1DA
100
AcDbEntity
  8
0
  6
Continuous
 62
     7
100
AcDbVertex
100
AcDb2dVertex
 10
-189.9118222805456
 20
1416.023190109244
 30
0.0
 70
     8
  0
VERTEX
  5
1EE
330
1DA
100
AcDbEntity
  8
0
  6
Continuous
 62
     7
100
AcDbVertex
100
AcDb2dVertex
 10
-161.3513467803816
 20
1404.689828276494
 30
0.0
 70
     8
  0
VERTEX
  5
1EF
330
1DA
100
AcDbEntity
  8
0
  6
Continuous
 62
     7
100
AcDbVertex
100
AcDb2dVertex
 10
-131.3779855664285
 20
1393.215177872364
 30
0.0
 70
     8
  0
VERTEX
  5
1F0
330
1DA
100
AcDbEntity
  8
0
  6
Continuous
 62
     7
100
AcDbVertex
100
AcDb2dVertex
 10
-99.9917386386864
 20
1381.599238896856
 30
0.0
 70
     8
  0
VERTEX
  5
1F1
330
1DA
100
AcDbEntity
  8
0
  6
Continuous
 62
     7
100
AcDbVertex
100
AcDb2dVertex
 10
-67.19260599715517
 20
1369.842011349968
 30
0.0
 70
     8
  0
VERTEX
  5
1F2
330
1DA
100
AcDbEntity
  8
0
  6
Continuous
 62
     7
100
AcDbVertex
100
AcDb2dVertex
 10
-32.98058764183506
 20
1357.943495231702
 30
0.0
 70
     8
  0
VERTEX
  5
1F3
330
1DA
100
AcDbEntity
  8
0
  6
Continuous
 62
     7
100
AcDbVertex
100
AcDb2dVertex
 10
2.644316427274077
 20
1345.903690542057
 30
0.0
 70
     8
  0
SEQEND
  5
1DB
330
1DA
100
AcDbEntity
  8
0
  6
Continuous
 62
     7
370
     0
  0
POLYLINE
  5
1F6
102
{ACAD_XDICTIONARY
360
1F4
102
}
330
1F
100
AcDbEntity
  8
0
  6
Continuous
 62
     7
370
     0
100
AcDb2dPolyline
 66
     1
 10
0.0
 20
0.0
 30
0.0
 70
   132
 75
     6
  0
VERTEX
  5
1F8
330
1F6
100
AcDbEntity
  8
0
  6
Continuous
 62
     7
100
AcDbVertex
100
AcDb2dVertex
 10
-9.466132548060486
 20
1370.124588492726
 30
0.0
 70
    16
  0
VERTEX
  5
1F9
330
1F6
100
AcDbEntity
  8
0
  6
Continuous
 62
     7
100
AcDbVertex
100
AcDb2dVertex
 10
-219.3805814538601
 20
1442.787282344734
 30
0.0
 70
    16
  0
VERTEX
  5
1FA
330
1F6
100
AcDbEntity
  8
0
  6
Continuous
 62
     7
100
AcDbVertex
100
AcDb2dVertex
 10
-380.853234458321
 20
1527.560425172076
 30
0.0
 70
    16
  0
VERTEX
  5
1FB
330
1F6
100
AcDbEntity
  8
0
  6
Continuous
 62
     7
100
AcDbVertex
100
AcDb2dVertex
 10
-441.4054793349941
 20
1571.965404748303
 30
0.0
 70
    16
  0
VERTEX
  5
1FC
330
1F6
100
AcDbEntity
  8
0
  6
Continuous
 62
     7
100
AcDbVertex
100
AcDb2dVertex
 10
-9.466132548060486
 20
1370.124588492726
 30
0.0
 70
     8
  0
VERTEX
  5
1FD
330
1F6
100
AcDbEntity
  8
0
  6
Continuous
 62
     7
100
AcDbVertex
100
AcDb2dVertex
 10
-40.58342658814211
 20
1381.108261111314
 30
0.0
 70
     8
  0
VERTEX
  5
1FE
330
1F6
100
AcDbEntity
  8
0
  6
Continuous
 62
     7
100
AcDbVertex
100
AcDb2dVertex
 10
-70.9347347305338
 20
1392.234231505362
 30
0.0
 70
     8
  0
VERTEX
  5
1FF
330
1F6
100
AcDbEntity
  8
0
  6
Continuous
 62
     7
100
AcDbVertex
100
AcDb2dVertex
 10
-100.4806980160658
 20
1403.4631407157
 30
0.0
 70
     8
  0
VERTEX
  5
200
330
1F6
100
AcDbEntity
  8
0
  6
Continuous
 62
     7
100
AcDbVertex
100
AcDb2dVertex
 10
-129.1819574855681
 20
1414.755629783159
 30
0.0
 70
     8
  0
VERTEX
  5
201
330
1F6
100
AcDbEntity
  8
0
  6
Continuous
 62
     7
100
AcDbVertex
100
AcDb2dVertex
 10
-156.9991541798711
 20
1426.072339748569
 30
0.0
 70
     8
  0
VERTEX
  5
202
330
1F6
100
AcDbEntity
  8
0
  6
Continuous
 62
     7
100
AcDbVertex
100
AcDb2dVertex
 10
-183.8929291398047
 20
1437.373911652759
 30
0.0
 70
     8
  0
VERTEX
  5
203
330
1F6
100
AcDbEntity
  8
0
  6
Continuous
 62
     7
100
AcDbVertex
100
AcDb2dVertex
 10
-209.8239234061992
 20
1448.62098653656
 30
0.0
 70
     8
  0
VERTEX
  5
204
330
1F6
100
AcDbEntity
  8
0
  6
Continuous
 62
     7
100
AcDbVertex
100
AcDb2dVertex
 10
-234.7527780198849
 20
1459.774205440803
 30
0.0
 70
     8
  0
VERTEX
  5
205
330
1F6
100
AcDbEntity
  8
0
  6
Continuous
 62
     7
100
AcDbVertex
100
AcDb2dVertex
 10
-258.6401340216917
 20
1470.794209406317
 30
0.0
 70
     8
  0
VERTEX
  5
206
330
1F6
100
AcDbEntity
  8
0
  6
Continuous
 62
     7
100
AcDbVertex
100
AcDb2dVertex
 10
-281.4466324524499
 20
1481.641639473932
 30
0.0
 70
     8
  0
VERTEX
  5
207
330
1F6
100
AcDbEntity
  8
0
  6
Continuous
 62
     7
100
AcDbVertex
100
AcDb2dVertex
 10
-303.1329143529896
 20
1492.277136684479
 30
0.0
 70
     8
  0
VERTEX
  5
208
330
1F6
100
AcDbEntity
  8
0
  6
Continuous
 62
     7
100
AcDbVertex
100
AcDb2dVertex
 10
-323.659620764141
 20
1502.661342078788
 30
0.0
 70
     8
  0
VERTEX
  5
209
330
1F6
100
AcDbEntity
  8
0
  6
Continuous
 62
     7
100
AcDbVertex
100
AcDb2dVertex
 10
-342.9873927267344
 20
1512.754896697689
 30
0.0
 70
     8
  0
VERTEX
  5
20A
330
1F6
100
AcDbEntity
  8
0
  6
Continuous
 62
     7
100
AcDbVertex
100
AcDb2dVertex
 10
-361.0768712815998
 20
1522.518441582012
 30
0.0
 70
     8
  0
VERTEX
  5
20B
330
1F6
100
AcDbEntity
  8
0
  6
Continuous
 62
     7
100
AcDbVertex
100
AcDb2dVertex
 10
-377.8886974695673
 20
1531.912617772587
 30
0.0
 70
     8
  0
VERTEX
  5
20C
330
1F6
100
AcDbEntity
  8
0
  6
Continuous
 62
     7
100
AcDbVertex
100
AcDb2dVertex
 10
-393.3835123314673
 20
1540.898066310244
 30
0.0
 70
     8
  0
VERTEX
  5
20D
330
1F6
100
AcDbEntity
  8
0
  6
Continuous
 62
     7
100
AcDbVertex
100
AcDb2dVertex
 10
-407.5219569081298
 20
1549.435428235815
 30
0.0
 70
     8
  0
VERTEX
  5
20E
330
1F6
100
AcDbEntity
  8
0
  6
Continuous
 62
     7
100
AcDbVertex
100
AcDb2dVertex
 10
-420.2646722403849
 20
1557.485344590128
 30
0.0
 70
     8
  0
VERTEX
  5
20F
330
1F6
100
AcDbEntity
  8
0
  6
Continuous
 62
     7
100
AcDbVertex
100
AcDb2dVertex
 10
-431.572299369063
 20
1565.008456414014
 30
0.0
 70
     8
  0
VERTEX
  5
210
330
1F6
100
AcDbEntity
  8
0
  6
Continuous
 62
     7
100
AcDbVertex
100
AcDb2dVertex
 10
-441.405479334994
 20
1571.965404748303
 30
0.0
 70
     8
  0
SEQEND
  5
1F7
330
1F6
100
AcDbEntity
  8
0
  6
Continuous
 62
     7
370
     0
  0
LEADER
  5
213
102
{ACAD_XDICTIONARY
360
211
102
}
330
1F
100
AcDbEntity
  8
0
  6
Continuous
 62
     7
370
     0
100
AcDbLeader
  3
標準寸法
 73
     0
 76
     5
 10
-441.0986941983705
 20
1533.544339848743
 30
0.0
 10
-474.7282352135071
 20
908.9904470899031
 30
0.0
 10
-567.2094730051326
 20
908.9904470899031
 30
0.0
 10
-582.2094730051326
 20
908.9904470899031
 30
0.0
 10
-1650.209473005133
 20
908.9904470899031
 30
0.0
340
216
1001
ACAD
1000
DSTYLE
1002
{
1070
   140
1040
35.9375
1002
}
  0
MTEXT
  5
216
102
{ACAD_REACTORS
330
213
102
}
102
{ACAD_XDICTIONARY
360
214
102
}
330
1F
100
AcDbEntity
  8
0
  6
Continuous
 62
     7
100
AcDbMText
 10
-592.2094730051326
 20
924.7404470899031
 30
0.0
 40
35.9375
 41
0.0
 46
0.0
 71
     9
 72
     1
  1
\A1;取水継手（フィルターなし）\Pφ５５用、φ６０用あり。事前にご確認ください。
  7
_TCW_TXTSTY_1
 73
     1
 44
1.0
  0
LINE
  5
219
102
{ACAD_XDICTIONARY
360
217
102
}
330
1F
100
AcDbEntity
  8
0
  6
Continuous
 62
     7
 48
0.2000000029802322
100
AcDbLine
 10
-1764.433352481246
 20
697.9946705112193
 30
0.0
 11
-1664.433352481246
 21
697.9946705112193
 31
0.0
  0
LEADER
  5
21C
102
{ACAD_XDICTIONARY
360
21A
102
}
330
1F
100
AcDbEntity
  8
0
  6
Continuous
 62
     7
370
     0
100
AcDbLeader
  3
標準寸法
 76
     4
 10
-1174.908924736098
 20
1870.30062308176
 30
0.0
 10
-306.8848703933039
 20
1870.30062308176
 30
0.0
 10
-269.8350631957459
 20
1505.095380705828
 30
0.0
 10
-254.8350631957459
 20
1505.095380705828
 30
0.0
  0
TEXT
  5
21F
102
{ACAD_XDICTIONARY
360
21D
102
}
330
1F
100
AcDbEntity
  8
0
  6
Continuous
 62
     7
100
AcDbText
 10
-1173.734060288912
 20
1888.777222923998
 30
0.0
 40
35.9375
  1
ホース　内径１５ミリから１８ミリ
  7
_TCW_TXTSTY_1
 11
-1173.734060288912
 21
1924.714722923998
 31
0.0
100
AcDbText
 73
     3
  0
POLYLINE
  5
222
102
{ACAD_XDICTIONARY
360
220
102
}
330
1F
100
AcDbEntity
  8
0
  6
Continuous
 62
     7
370
     0
100
AcDb2dPolyline
 66
     1
 10
0.0
 20
0.0
 30
0.0
 70
   132
 75
     6
  0
VERTEX
  5
224
330
222
100
AcDbEntity
  8
0
  6
Continuous
 62
     7
100
AcDbVertex
100
AcDb2dVertex
 10
451.1298102623641
 20
-88.36668429107135
 30
0.0
 70
    16
  0
VERTEX
  5
225
330
222
100
AcDbEntity
  8
0
  6
Continuous
 62
     7
100
AcDbVertex
100
AcDb2dVertex
 10
510.4652157742432
 20
-195.1704142124538
 30
0.0
 70
    16
  0
VERTEX
  5
226
330
222
100
AcDbEntity
  8
0
  6
Continuous
 62
     7
100
AcDbVertex
100
AcDb2dVertex
 10
739.8954504201758
 20
89.63953224456577
 30
0.0
 70
    16
  0
VERTEX
  5
227
330
222
100
AcDbEntity
  8
0
  6
Continuous
 62
     7
100
AcDbVertex
100
AcDb2dVertex
 10
589.5790897900822
 20
651.3480377570207
 30
0.0
 70
    16
  0
VERTEX
  5
228
330
222
100
AcDbEntity
  8
0
  6
Continuous
 62
     7
100
AcDbVertex
100
AcDb2dVertex
 10
605.4018645932499
 20
785.8416235839466
 30
0.0
 70
    16
  0
VERTEX
  5
229
330
222
100
AcDbEntity
  8
0
  6
Continuous
 62
     7
100
AcDbVertex
100
AcDb2dVertex
 10
787.363774829679
 20
841.2213353950337
 30
0.0
 70
    16
  0
VERTEX
  5
22A
330
222
100
AcDbEntity
  8
0
  6
Continuous
 62
     7
100
AcDbVertex
100
AcDb2dVertex
 10
811.0979370344305
 20
825.398560591866
 30
0.0
 70
    16
  0
VERTEX
  5
22B
330
222
100
AcDbEntity
  8
0
  6
Continuous
 62
     7
100
AcDbVertex
100
AcDb2dVertex
 10
846.6991803415578
 20
738.3732991744432
 30
0.0
 70
    16
  0
VERTEX
  5
22C
330
222
100
AcDbEntity
  8
0
  6
Continuous
 62
     7
100
AcDbVertex
100
AcDb2dVertex
 10
451.1298102623641
 20
-88.36668429107135
 30
0.0
 70
     8
  0
VERTEX
  5
22D
330
222
100
AcDbEntity
  8
0
  6
Continuous
 62
     7
100
AcDbVertex
100
AcDb2dVertex
 10
460.4282451780736
 20
-102.5465276438435
 30
0.0
 70
     8
  0
VERTEX
  5
22E
330
222
100
AcDbEntity
  8
0
  6
Continuous
 62
     7
100
AcDbVertex
100
AcDb2dVertex
 10
470.4540332730163
 20
-113.1583352785014
 30
0.0
 70
     8
  0
VERTEX
  5
22F
330
222
100
AcDbEntity
  8
0
  6
Continuous
 62
     7
100
AcDbVertex
100
AcDb2dVertex
 10
481.1038320492588
 20
-120.372202024179
 30
0.0
 70
     8
  0
VERTEX
  5
230
330
222
100
AcDbEntity
  8
0
  6
Continuous
 62
     7
100
AcDbVertex
100
AcDb2dVertex
 10
492.2742990088681
 20
-124.3582227100103
 30
0.0
 70
     8
  0
VERTEX
  5
231
330
222
100
AcDbEntity
  8
0
  6
Continuous
 62
     7
100
AcDbVertex
100
AcDb2dVertex
 10
503.8620916539109
 20
-125.2864921651295
 30
0.0
 70
     8
  0
VERTEX
  5
232
330
222
100
AcDbEntity
  8
0
  6
Continuous
 62
     7
100
AcDbVertex
100
AcDb2dVertex
 10
515.7638674864542
 20
-123.3271052186706
 30
0.0
 70
     8
  0
VERTEX
  5
233
330
222
100
AcDbEntity
  8
0
  6
Continuous
 62
     7
100
AcDbVertex
100
AcDb2dVertex
 10
527.8762840085645
 20
-118.6501566997676
 30
0.0
 70
     8
  0
VERTEX
  5
234
330
222
100
AcDbEntity
  8
0
  6
Continuous
 62
     7
100
AcDbVertex
100
AcDb2dVertex
 10
540.0959987223089
 20
-111.4257414375545
 30
0.0
 70
     8
  0
VERTEX
  5
235
330
222
100
AcDbEntity
  8
0
  6
Continuous
 62
     7
100
AcDbVertex
100
AcDb2dVertex
 10
552.3196691297541
 20
-101.8239542611656
 30
0.0
 70
     8
  0
VERTEX
  5
236
330
222
100
AcDbEntity
  8
0
  6
Continuous
 62
     7
100
AcDbVertex
100
AcDb2dVertex
 10
564.4439527329669
 20
-90.01488999973463
 30
0.0
 70
     8
  0
VERTEX
  5
237
330
222
100
AcDbEntity
  8
0
  6
Continuous
 62
     7
100
AcDbVertex
100
AcDb2dVertex
 10
576.365507034014
 20
-76.16864348239591
 30
0.0
 70
     8
  0
VERTEX
  5
238
330
222
100
AcDbEntity
  8
0
  6
Continuous
 62
     7
100
AcDbVertex
100
AcDb2dVertex
 10
587.9809895349623
 20
-60.45530953828348
 30
0.0
 70
     8
  0
VERTEX
  5
239
330
222
100
AcDbEntity
  8
0
  6
Continuous
 62
     7
100
AcDbVertex
100
AcDb2dVertex
 10
599.1870577378786
 20
-43.04498299653115
 30
0.0
 70
     8
  0
VERTEX
  5
23A
330
222
100
AcDbEntity
  8
0
  6
Continuous
 62
     7
100
AcDbVertex
100
AcDb2dVertex
 10
609.88036914483
 20
-24.10775868627319
 30
0.0
 70
     8
  0
VERTEX
  5
23B
330
222
100
AcDbEntity
  8
0
  6
Continuous
 62
     7
100
AcDbVertex
100
AcDb2dVertex
 10
619.9575812578828
 20
-3.81373143664365
 30
0.0
 70
     8
  0
VERTEX
  5
23C
330
222
100
AcDbEntity
  8
0
  6
Continuous
 62
     7
100
AcDbVertex
100
AcDb2dVertex
 10
629.3153515791041
 20
17.66700392322343
 30
0.0
 70
     8
  0
VERTEX
  5
23D
330
222
100
AcDbEntity
  8
0
  6
Continuous
 62
     7
100
AcDbVertex
100
AcDb2dVertex
 10
637.850337610561
 20
40.16435256419419
 30
0.0
 70
     8
  0
VERTEX
  5
23E
330
222
100
AcDbEntity
  8
0
  6
Continuous
 62
     7
100
AcDbVertex
100
AcDb2dVertex
 10
645.4591968543197
 20
63.50821965713436
 30
0.0
 70
     8
  0
VERTEX
  5
23F
330
222
100
AcDbEntity
  8
0
  6
Continuous
 62
     7
100
AcDbVertex
100
AcDb2dVertex
 10
652.0385868124473
 20
87.52851037290989
 30
0.0
 70
     8
  0
VERTEX
  5
240
330
222
100
AcDbEntity
  8
0
  6
Continuous
 62
     7
100
AcDbVertex
100
AcDb2dVertex
 10
657.4851649870108
 20
112.0551298823869
 30
0.0
 70
     8
  0
VERTEX
  5
241
330
222
100
AcDbEntity
  8
0
  6
Continuous
 62
     7
100
AcDbVertex
100
AcDb2dVertex
 10
661.7265751473992
 20
136.9346302340885
 30
0.0
 70
     8
  0
VERTEX
  5
242
330
222
100
AcDbEntity
  8
0
  6
Continuous
 62
     7
100
AcDbVertex
100
AcDb2dVertex
 10
664.8144061322945
 20
162.0801509871685
 30
0.0
 70
     8
  0
VERTEX
  5
243
330
222
100
AcDbEntity
  8
0
  6
Continuous
 62
     7
100
AcDbVertex
100
AcDb2dVertex
 10
666.8312330477004
 20
187.4214785784378
 30
0.0
 70
     8
  0
VERTEX
  5
244
330
222
100
AcDbEntity
  8
0
  6
Continuous
 62
     7
100
AcDbVertex
100
AcDb2dVertex
 10
667.8596309996208
 20
212.8883994447071
 30
0.0
 70
     8
  0
VERTEX
  5
245
330
222
100
AcDbEntity
  8
0
  6
Continuous
 62
     7
100
AcDbVertex
100
AcDb2dVertex
 10
667.9821750940598
 20
238.4107000227876
 30
0.0
 70
     8
  0
VERTEX
  5
246
330
222
100
AcDbEntity
  8
0
  6
Continuous
 62
     7
100
AcDbVertex
100
AcDb2dVertex
 10
667.2814404370216
 20
263.9181667494902
 30
0.0
 70
     8
  0
VERTEX
  5
247
330
222
100
AcDbEntity
  8
0
  6
Continuous
 62
     7
100
AcDbVertex
100
AcDb2dVertex
 10
665.8400021345101
 20
289.3405860616256
 30
0.0
 70
     8
  0
VERTEX
  5
248
330
222
100
AcDbEntity
  8
0
  6
Continuous
 62
     7
100
AcDbVertex
100
AcDb2dVertex
 10
663.7404352925294
 20
314.607744396005
 30
0.0
 70
     8
  0
VERTEX
  5
249
330
222
100
AcDbEntity
  8
0
  6
Continuous
 62
     7
100
AcDbVertex
100
AcDb2dVertex
 10
661.0653150170834
 20
339.6494281894392
 30
0.0
 70
     8
  0
VERTEX
  5
24A
330
222
100
AcDbEntity
  8
0
  6
Continuous
 62
     7
100
AcDbVertex
100
AcDb2dVertex
 10
657.8972164141762
 20
364.3954238787393
 30
0.0
 70
     8
  0
VERTEX
  5
24B
330
222
100
AcDbEntity
  8
0
  6
Continuous
 62
     7
100
AcDbVertex
100
AcDb2dVertex
 10
654.318714589812
 20
388.775517900716
 30
0.0
 70
     8
  0
VERTEX
  5
24C
330
222
100
AcDbEntity
  8
0
  6
Continuous
 62
     7
100
AcDbVertex
100
AcDb2dVertex
 10
650.4123846499945
 20
412.7194966921805
 30
0.0
 70
     8
  0
VERTEX
  5
24D
330
222
100
AcDbEntity
  8
0
  6
Continuous
 62
     7
100
AcDbVertex
100
AcDb2dVertex
 10
646.2608017007279
 20
436.1571466899435
 30
0.0
 70
     8
  0
VERTEX
  5
24E
330
222
100
AcDbEntity
  8
0
  6
Continuous
 62
     7
100
AcDbVertex
100
AcDb2dVertex
 10
641.9465408480163
 20
459.0182543308162
 30
0.0
 70
     8
  0
VERTEX
  5
24F
330
222
100
AcDbEntity
  8
0
  6
Continuous
 62
     7
100
AcDbVertex
100
AcDb2dVertex
 10
637.5521771978636
 20
481.2326060516094
 30
0.0
 70
     8
  0
VERTEX
  5
250
330
222
100
AcDbEntity
  8
0
  6
Continuous
 62
     7
100
AcDbVertex
100
AcDb2dVertex
 10
633.1602858562738
 20
502.729988289134
 30
0.0
 70
     8
  0
VERTEX
  5
251
330
222
100
AcDbEntity
  8
0
  6
Continuous
 62
     7
100
AcDbVertex
100
AcDb2dVertex
 10
628.8534419292512
 20
523.4401874802011
 30
0.0
 70
     8
  0
VERTEX
  5
252
330
222
100
AcDbEntity
  8
0
  6
Continuous
 62
     7
100
AcDbVertex
100
AcDb2dVertex
 10
624.7142205227997
 20
543.2929900616216
 30
0.0
 70
     8
  0
VERTEX
  5
253
330
222
100
AcDbEntity
  8
0
  6
Continuous
 62
     7
100
AcDbVertex
100
AcDb2dVertex
 10
620.8251967429231
 20
562.2181824702062
 30
0.0
 70
     8
  0
VERTEX
  5
254
330
222
100
AcDbEntity
  8
0
  6
Continuous
 62
     7
100
AcDbVertex
100
AcDb2dVertex
 10
617.2689456956258
 20
580.1455511427661
 30
0.0
 70
     8
  0
VERTEX
  5
255
330
222
100
AcDbEntity
  8
0
  6
Continuous
 62
     7
100
AcDbVertex
100
AcDb2dVertex
 10
614.1142799692442
 20
597.0238368817618
 30
0.0
 70
     8
  0
VERTEX
  5
256
330
222
100
AcDbEntity
  8
0
  6
Continuous
 62
     7
100
AcDbVertex
100
AcDb2dVertex
 10
611.3749620814458
 20
612.8775979522522
 30
0.0
 70
     8
  0
VERTEX
  5
257
330
222
100
AcDbEntity
  8
0
  6
Continuous
 62
     7
100
AcDbVertex
100
AcDb2dVertex
 10
609.0509920322305
 20
627.7503469849465
 30
0.0
 70
     8
  0
VERTEX
  5
258
330
222
100
AcDbEntity
  8
0
  6
Continuous
 62
     7
100
AcDbVertex
100
AcDb2dVertex
 10
607.1423698215984
 20
641.6855966105529
 30
0.0
 70
     8
  0
VERTEX
  5
259
330
222
100
AcDbEntity
  8
0
  6
Continuous
 62
     7
100
AcDbVertex
100
AcDb2dVertex
 10
605.6490954495496
 20
654.7268594597807
 30
0.0
 70
     8
  0
VERTEX
  5
25A
330
222
100
AcDbEntity
  8
0
  6
Continuous
 62
     7
100
AcDbVertex
100
AcDb2dVertex
 10
604.5711689160837
 20
666.917648163338
 30
0.0
 70
     8
  0
VERTEX
  5
25B
330
222
100
AcDbEntity
  8
0
  6
Continuous
 62
     7
100
AcDbVertex
100
AcDb2dVertex
 10
603.908590221201
 20
678.3014753519336
 30
0.0
 70
     8
  0
VERTEX
  5
25C
330
222
100
AcDbEntity
  8
0
  6
Continuous
 62
     7
100
AcDbVertex
100
AcDb2dVertex
 10
603.6613593649016
 20
688.9218536562765
 30
0.0
 70
     8
  0
VERTEX
  5
25D
330
222
100
AcDbEntity
  8
0
  6
Continuous
 62
     7
100
AcDbVertex
100
AcDb2dVertex
 10
603.8294763471853
 20
698.8222957070752
 30
0.0
 70
     8
  0
VERTEX
  5
25E
330
222
100
AcDbEntity
  8
0
  6
Continuous
 62
     7
100
AcDbVertex
100
AcDb2dVertex
 10
604.412941168052
 20
708.0463141350386
 30
0.0
 70
     8
  0
VERTEX
  5
25F
330
222
100
AcDbEntity
  8
0
  6
Continuous
 62
     7
100
AcDbVertex
100
AcDb2dVertex
 10
605.411753827502
 20
716.6374215708753
 30
0.0
 70
     8
  0
VERTEX
  5
260
330
222
100
AcDbEntity
  8
0
  6
Continuous
 62
     7
100
AcDbVertex
100
AcDb2dVertex
 10
606.8259143255351
 20
724.6391306452939
 30
0.0
 70
     8
  0
VERTEX
  5
261
330
222
100
AcDbEntity
  8
0
  6
Continuous
 62
     7
100
AcDbVertex
100
AcDb2dVertex
 10
608.6554226621514
 20
732.0949539890031
 30
0.0
 70
     8
  0
VERTEX
  5
262
330
222
100
AcDbEntity
  8
0
  6
Continuous
 62
     7
100
AcDbVertex
100
AcDb2dVertex
 10
610.9002788373508
 20
739.048404232712
 30
0.0
 70
     8
  0
VERTEX
  5
263
330
222
100
AcDbEntity
  8
0
  6
Continuous
 62
     7
100
AcDbVertex
100
AcDb2dVertex
 10
613.5604828511333
 20
745.5429940071288
 30
0.0
 70
     8
  0
VERTEX
  5
264
330
222
100
AcDbEntity
  8
0
  6
Continuous
 62
     7
100
AcDbVertex
100
AcDb2dVertex
 10
616.636034703499
 20
751.6222359429624
 30
0.0
 70
     8
  0
VERTEX
  5
265
330
222
100
AcDbEntity
  8
0
  6
Continuous
 62
     7
100
AcDbVertex
100
AcDb2dVertex
 10
620.126934394448
 20
757.3296426709219
 30
0.0
 70
     8
  0
VERTEX
  5
266
330
222
100
AcDbEntity
  8
0
  6
Continuous
 62
     7
100
AcDbVertex
100
AcDb2dVertex
 10
624.03318192398
 20
762.7087268217155
 30
0.0
 70
     8
  0
VERTEX
  5
267
330
222
100
AcDbEntity
  8
0
  6
Continuous
 62
     7
100
AcDbVertex
100
AcDb2dVertex
 10
628.3547772920952
 20
767.803001026052
 30
0.0
 70
     8
  0
VERTEX
  5
268
330
222
100
AcDbEntity
  8
0
  6
Continuous
 62
     7
100
AcDbVertex
100
AcDb2dVertex
 10
633.0917204987935
 20
772.6559779146403
 30
0.0
 70
     8
  0
VERTEX
  5
269
330
222
100
AcDbEntity
  8
0
  6
Continuous
 62
     7
100
AcDbVertex
100
AcDb2dVertex
 10
638.2375011315256
 20
777.3039180130706
 30
0.0
 70
     8
  0
VERTEX
  5
26A
330
222
100
AcDbEntity
  8
0
  6
Continuous
 62
     7
100
AcDbVertex
100
AcDb2dVertex
 10
643.7595671275458
 20
781.7540734264616
 30
0.0
 70
     8
  0
VERTEX
  5
26B
330
222
100
AcDbEntity
  8
0
  6
Continuous
 62
     7
100
AcDbVertex
100
AcDb2dVertex
 10
649.6188560115584
 20
786.0064441548128
 30
0.0
 70
     8
  0
VERTEX
  5
26C
330
222
100
AcDbEntity
  8
0
  6
Continuous
 62
     7
100
AcDbVertex
100
AcDb2dVertex
 10
655.7763053082683
 20
790.0610301981246
 30
0.0
 70
     8
  0
VERTEX
  5
26D
330
222
100
AcDbEntity
  8
0
  6
Continuous
 62
     7
100
AcDbVertex
100
AcDb2dVertex
 10
662.19285254238
 20
793.9178315563968
 30
0.0
 70
     8
  0
VERTEX
  5
26E
330
222
100
AcDbEntity
  8
0
  6
Continuous
 62
     7
100
AcDbVertex
100
AcDb2dVertex
 10
668.8294352385982
 20
797.5768482296294
 30
0.0
 70
     8
  0
VERTEX
  5
26F
330
222
100
AcDbEntity
  8
0
  6
Continuous
 62
     7
100
AcDbVertex
100
AcDb2dVertex
 10
675.6469909216277
 20
801.0380802178222
 30
0.0
 70
     8
  0
VERTEX
  5
270
330
222
100
AcDbEntity
  8
0
  6
Continuous
 62
     7
100
AcDbVertex
100
AcDb2dVertex
 10
682.606457116173
 20
804.3015275209756
 30
0.0
 70
     8
  0
VERTEX
  5
271
330
222
100
AcDbEntity
  8
0
  6
Continuous
 62
     7
100
AcDbVertex
100
AcDb2dVertex
 10
689.6687713469391
 20
807.3671901390894
 30
0.0
 70
     8
  0
VERTEX
  5
272
330
222
100
AcDbEntity
  8
0
  6
Continuous
 62
     7
100
AcDbVertex
100
AcDb2dVertex
 10
696.7948711386304
 20
810.2350680721636
 30
0.0
 70
     8
  0
VERTEX
  5
273
330
222
100
AcDbEntity
  8
0
  6
Continuous
 62
     7
100
AcDbVertex
100
AcDb2dVertex
 10
703.9456940159515
 20
812.9051613201982
 30
0.0
 70
     8
  0
VERTEX
  5
274
330
222
100
AcDbEntity
  8
0
  6
Continuous
 62
     7
100
AcDbVertex
100
AcDb2dVertex
 10
711.0821775036073
 20
815.3774698831932
 30
0.0
 70
     8
  0
VERTEX
  5
275
330
222
100
AcDbEntity
  8
0
  6
Continuous
 62
     7
100
AcDbVertex
100
AcDb2dVertex
 10
718.1652591263024
 20
817.6519937611486
 30
0.0
 70
     8
  0
VERTEX
  5
276
330
222
100
AcDbEntity
  8
0
  6
Continuous
 62
     7
100
AcDbVertex
100
AcDb2dVertex
 10
725.1558764087416
 20
819.7287329540643
 30
0.0
 70
     8
  0
VERTEX
  5
277
330
222
100
AcDbEntity
  8
0
  6
Continuous
 62
     7
100
AcDbVertex
100
AcDb2dVertex
 10
732.0149668756293
 20
821.6076874619403
 30
0.0
 70
     8
  0
VERTEX
  5
278
330
222
100
AcDbEntity
  8
0
  6
Continuous
 62
     7
100
AcDbVertex
100
AcDb2dVertex
 10
738.7034680516704
 20
823.2888572847769
 30
0.0
 70
     8
  0
VERTEX
  5
279
330
222
100
AcDbEntity
  8
0
  6
Continuous
 62
     7
100
AcDbVertex
100
AcDb2dVertex
 10
745.1823174615696
 20
824.7722424225739
 30
0.0
 70
     8
  0
VERTEX
  5
27A
330
222
100
AcDbEntity
  8
0
  6
Continuous
 62
     7
100
AcDbVertex
100
AcDb2dVertex
 10
751.4124526300315
 20
826.0578428753312
 30
0.0
 70
     8
  0
VERTEX
  5
27B
330
222
100
AcDbEntity
  8
0
  6
Continuous
 62
     7
100
AcDbVertex
100
AcDb2dVertex
 10
757.3548110817607
 20
827.145658643049
 30
0.0
 70
     8
  0
VERTEX
  5
27C
330
222
100
AcDbEntity
  8
0
  6
Continuous
 62
     7
100
AcDbVertex
100
AcDb2dVertex
 10
762.9703303414618
 20
828.035689725727
 30
0.0
 70
     8
  0
VERTEX
  5
27D
330
222
100
AcDbEntity
  8
0
  6
Continuous
 62
     7
100
AcDbVertex
100
AcDb2dVertex
 10
768.2324742972258
 20
828.7196950948226
 30
0.0
 70
     8
  0
VERTEX
  5
27E
330
222
100
AcDbEntity
  8
0
  6
Continuous
 62
     7
100
AcDbVertex
100
AcDb2dVertex
 10
773.1648122906862
 20
829.1564696076183
 30
0.0
 70
     8
  0
VERTEX
  5
27F
330
222
100
AcDbEntity
  8
0
  6
Continuous
 62
     7
100
AcDbVertex
100
AcDb2dVertex
 10
777.8034400268627
 20
829.2965670928547
 30
0.0
 70
     8
  0
VERTEX
  5
280
330
222
100
AcDbEntity
  8
0
  6
Continuous
 62
     7
100
AcDbVertex
100
AcDb2dVertex
 10
782.1844532107752
 20
829.0905413792717
 30
0.0
 70
     8
  0
VERTEX
  5
281
330
222
100
AcDbEntity
  8
0
  6
Continuous
 62
     7
100
AcDbVertex
100
AcDb2dVertex
 10
786.3439475474435
 20
828.4889462956097
 30
0.0
 70
     8
  0
VERTEX
  5
282
330
222
100
AcDbEntity
  8
0
  6
Continuous
 62
     7
100
AcDbVertex
100
AcDb2dVertex
 10
790.318018741887
 20
827.4423356706085
 30
0.0
 70
     8
  0
VERTEX
  5
283
330
222
100
AcDbEntity
  8
0
  6
Continuous
 62
     7
100
AcDbVertex
100
AcDb2dVertex
 10
794.1427624991258
 20
825.9012633330082
 30
0.0
 70
     8
  0
VERTEX
  5
284
330
222
100
AcDbEntity
  8
0
  6
Continuous
 62
     7
100
AcDbVertex
100
AcDb2dVertex
 10
797.8542745241791
 20
823.8162831115492
 30
0.0
 70
     8
  0
VERTEX
  5
285
330
222
100
AcDbEntity
  8
0
  6
Continuous
 62
     7
100
AcDbVertex
100
AcDb2dVertex
 10
801.4886505220671
 20
821.1379488349712
 30
0.0
 70
     8
  0
VERTEX
  5
286
330
222
100
AcDbEntity
  8
0
  6
Continuous
 62
     7
100
AcDbVertex
100
AcDb2dVertex
 10
805.0819861978094
 20
817.8168143320147
 30
0.0
 70
     8
  0
VERTEX
  5
287
330
222
100
AcDbEntity
  8
0
  6
Continuous
 62
     7
100
AcDbVertex
100
AcDb2dVertex
 10
808.6703772564257
 20
813.8034334314196
 30
0.0
 70
     8
  0
VERTEX
  5
288
330
222
100
AcDbEntity
  8
0
  6
Continuous
 62
     7
100
AcDbVertex
100
AcDb2dVertex
 10
812.2899194029358
 20
809.0483599619258
 30
0.0
 70
     8
  0
VERTEX
  5
289
330
222
100
AcDbEntity
  8
0
  6
Continuous
 62
     7
100
AcDbVertex
100
AcDb2dVertex
 10
815.9767083423593
 20
803.5021477522739
 30
0.0
 70
     8
  0
VERTEX
  5
28A
330
222
100
AcDbEntity
  8
0
  6
Continuous
 62
     7
100
AcDbVertex
100
AcDb2dVertex
 10
819.766839779716
 20
797.1153506312035
 30
0.0
 70
     8
  0
VERTEX
  5
28B
330
222
100
AcDbEntity
  8
0
  6
Continuous
 62
     7
100
AcDbVertex
100
AcDb2dVertex
 10
823.6964094200256
 20
789.838522427455
 30
0.0
 70
     8
  0
VERTEX
  5
28C
330
222
100
AcDbEntity
  8
0
  6
Continuous
 62
     7
100
AcDbVertex
100
AcDb2dVertex
 10
827.8015129683079
 20
781.6222169697685
 30
0.0
 70
     8
  0
VERTEX
  5
28D
330
222
100
AcDbEntity
  8
0
  6
Continuous
 62
     7
100
AcDbVertex
100
AcDb2dVertex
 10
832.1182461295825
 20
772.4169880868837
 30
0.0
 70
     8
  0
VERTEX
  5
28E
330
222
100
AcDbEntity
  8
0
  6
Continuous
 62
     7
100
AcDbVertex
100
AcDb2dVertex
 10
836.682704608869
 20
762.1733896075413
 30
0.0
 70
     8
  0
VERTEX
  5
28F
330
222
100
AcDbEntity
  8
0
  6
Continuous
 62
     7
100
AcDbVertex
100
AcDb2dVertex
 10
841.5309841111876
 20
750.841975360481
 30
0.0
 70
     8
  0
VERTEX
  5
290
330
222
100
AcDbEntity
  8
0
  6
Continuous
 62
     7
100
AcDbVertex
100
AcDb2dVertex
 10
846.6991803415577
 20
738.3732991744431
 30
0.0
 70
     8
  0
SEQEND
  5
223
330
222
100
AcDbEntity
  8
0
  6
Continuous
 62
     7
370
     0
  0
LWPOLYLINE
  5
293
102
{ACAD_XDICTIONARY
360
291
102
}
330
1F
100
AcDbEntity
  8
0
  6
Continuous
 62
     7
370
     0
100
AcDbPolyline
 90
        4
 70
   129
 43
0.0
 10
-23.55343383266813
 20
864.9554975997853
 10
609.3575582940418
 20
864.9554975997853
 10
609.3575582940418
 20
853.0884164974095
 10
-23.55343383266813
 20
853.0884164974095
  0
POLYLINE
  5
296
102
{ACAD_XDICTIONARY
360
294
102
}
330
1F
100
AcDbEntity
  8
0
  6
Continuous
 62
     7
370
     0
100
AcDb2dPolyline
 66
     1
 10
0.0
 20
0.0
 30
0.0
 70
   132
 75
     6
  0
VERTEX
  5
298
330
296
100
AcDbEntity
  8
0
  6
Continuous
 62
     7
100
AcDbVertex
100
AcDb2dVertex
 10
431.3513417584045
 20
-88.36668429107135
 30
0.0
 70
    16
  0
VERTEX
  5
299
330
296
100
AcDbEntity
  8
0
  6
Continuous
 62
     7
100
AcDbVertex
100
AcDb2dVertex
 10
462.9968913647399
 20
-131.8793149997825
 30
0.0
 70
    16
  0
VERTEX
  5
29A
330
296
100
AcDbEntity
  8
0
  6
Continuous
 62
     7
100
AcDbVertex
100
AcDb2dVertex
 10
494.6424409710755
 20
-143.7463961021588
 30
0.0
 70
    16
  0
VERTEX
  5
29B
330
296
100
AcDbEntity
  8
0
  6
Continuous
 62
     7
100
AcDbVertex
100
AcDb2dVertex
 10
601.4461708924575
 20
-104.1894590942395
 30
0.0
 70
    16
  0
VERTEX
  5
29C
330
296
100
AcDbEntity
  8
0
  6
Continuous
 62
     7
100
AcDbVertex
100
AcDb2dVertex
 10
641.0031079003772
 20
18.43704563031064
 30
0.0
 70
    16
  0
VERTEX
  5
29D
330
296
100
AcDbEntity
  8
0
  6
Continuous
 62
     7
100
AcDbVertex
100
AcDb2dVertex
 10
684.5157386090884
 20
133.152162953277
 30
0.0
 70
    16
  0
VERTEX
  5
29E
330
296
100
AcDbEntity
  8
0
  6
Continuous
 62
     7
100
AcDbVertex
100
AcDb2dVertex
 10
692.4271260106723
 20
224.1331180714917
 30
0.0
 70
    16
  0
VERTEX
  5
29F
330
296
100
AcDbEntity
  8
0
  6
Continuous
 62
     7
100
AcDbVertex
100
AcDb2dVertex
 10
676.6043512075046
 20
346.7596227960419
 30
0.0
 70
    16
  0
VERTEX
  5
2A0
330
296
100
AcDbEntity
  8
0
  6
Continuous
 62
     7
100
AcDbVertex
100
AcDb2dVertex
 10
660.7815764043369
 20
473.3418212213835
 30
0.0
 70
    16
  0
VERTEX
  5
2A1
330
296
100
AcDbEntity
  8
0
  6
Continuous
 62
     7
100
AcDbVertex
100
AcDb2dVertex
 10
617.2689456956257
 20
639.4809566546451
 30
0.0
 70
    16
  0
VERTEX
  5
2A2
330
296
100
AcDbEntity
  8
0
  6
Continuous
 62
     7
100
AcDbVertex
100
AcDb2dVertex
 10
625.1803330972095
 20
710.6834432688997
 30
0.0
 70
    16
  0
VERTEX
  5
2A3
330
296
100
AcDbEntity
  8
0
  6
Continuous
 62
     7
100
AcDbVertex
100
AcDb2dVertex
 10
644.9588016011692
 20
750.2403802768192
 30
0.0
 70
    16
  0
VERTEX
  5
2A4
330
296
100
AcDbEntity
  8
0
  6
Continuous
 62
     7
100
AcDbVertex
100
AcDb2dVertex
 10
724.0726756170077
 20
797.7087046863226
 30
0.0
 70
    16
  0
VERTEX
  5
2A5
330
296
100
AcDbEntity
  8
0
  6
Continuous
 62
     7
100
AcDbVertex
100
AcDb2dVertex
 10
807.1422433336386
 20
805.6200920879062
 30
0.0
 70
    16
  0
VERTEX
  5
2A6
330
296
100
AcDbEntity
  8
0
  6
Continuous
 62
     7
100
AcDbVertex
100
AcDb2dVertex
 10
819.0093244360144
 20
718.5948306704836
 30
0.0
 70
    16
  0
VERTEX
  5
2A7
330
296
100
AcDbEntity
  8
0
  6
Continuous
 62
     7
100
AcDbVertex
100
AcDb2dVertex
 10
431.3513417584045
 20
-88.36668429107135
 30
0.0
 70
     8
  0
VERTEX
  5
2A8
330
296
100
AcDbEntity
  8
0
  6
Continuous
 62
     7
100
AcDbVertex
100
AcDb2dVertex
 10
435.9827173894629
 20
-94.61523815832751
 30
0.0
 70
     8
  0
VERTEX
  5
2A9
330
296
100
AcDbEntity
  8
0
  6
Continuous
 62
     7
100
AcDbVertex
100
AcDb2dVertex
 10
440.3960354052653
 20
-100.3211202960063
 30
0.0
 70
     8
  0
VERTEX
  5
2AA
330
296
100
AcDbEntity
  8
0
  6
Continuous
 62
     7
100
AcDbVertex
100
AcDb2dVertex
 10
444.6105798126027
 20
-105.5053453268931
 30
0.0
 70
     8
  0
VERTEX
  5
2AB
330
296
100
AcDbEntity
  8
0
  6
Continuous
 62
     7
100
AcDbVertex
100
AcDb2dVertex
 10
448.6456346182668
 20
-110.1889278737735
 30
0.0
 70
     8
  0
VERTEX
  5
2AC
330
296
100
AcDbEntity
  8
0
  6
Continuous
 62
     7
100
AcDbVertex
100
AcDb2dVertex
 10
452.5204838290488
 20
-114.3928825594329
 30
0.0
 70
     8
  0
VERTEX
  5
2AD
330
296
100
AcDbEntity
  8
0
  6
Continuous
 62
     7
100
AcDbVertex
100
AcDb2dVertex
 10
456.2544114517401
 20
-118.1382240066566
 30
0.0
 70
     8
  0
VERTEX
  5
2AE
330
296
100
AcDbEntity
  8
0
  6
Continuous
 62
     7
100
AcDbVertex
100
AcDb2dVertex
 10
459.866701493132
 20
-121.4459668382303
 30
0.0
 70
     8
  0
VERTEX
  5
2AF
330
296
100
AcDbEntity
  8
0
  6
Continuous
 62
     7
100
AcDbVertex
100
AcDb2dVertex
 10
463.376637960016
 20
-124.3371256769394
 30
0.0
 70
     8
  0
VERTEX
  5
2B0
330
296
100
AcDbEntity
  8
0
  6
Continuous
 62
     7
100
AcDbVertex
100
AcDb2dVertex
 10
466.8035048591834
 20
-126.8327151455692
 30
0.0
 70
     8
  0
VERTEX
  5
2B1
330
296
100
AcDbEntity
  8
0
  6
Continuous
 62
     7
100
AcDbVertex
100
AcDb2dVertex
 10
470.1665861974254
 20
-128.9537498669053
 30
0.0
 70
     8
  0
VERTEX
  5
2B2
330
296
100
AcDbEntity
  8
0
  6
Continuous
 62
     7
100
AcDbVertex
100
AcDb2dVertex
 10
473.4851659815335
 20
-130.7212444637331
 30
0.0
 70
     8
  0
VERTEX
  5
2B3
330
296
100
AcDbEntity
  8
0
  6
Continuous
 62
     7
100
AcDbVertex
100
AcDb2dVertex
 10
476.7785282182991
 20
-132.1562135588381
 30
0.0
 70
     8
  0
VERTEX
  5
2B4
330
296
100
AcDbEntity
  8
0
  6
Continuous
 62
     7
100
AcDbVertex
100
AcDb2dVertex
 10
480.0659569145134
 20
-133.2796717750058
 30
0.0
 70
     8
  0
VERTEX
  5
2B5
330
296
100
AcDbEntity
  8
0
  6
Continuous
 62
     7
100
AcDbVertex
100
AcDb2dVertex
 10
483.3667360769681
 20
-134.1126337350215
 30
0.0
 70
     8
  0
VERTEX
  5
2B6
330
296
100
AcDbEntity
  8
0
  6
Continuous
 62
     7
100
AcDbVertex
100
AcDb2dVertex
 10
486.7001497124542
 20
-134.6761140616708
 30
0.0
 70
     8
  0
VERTEX
  5
2B7
330
296
100
AcDbEntity
  8
0
  6
Continuous
 62
     7
100
AcDbVertex
100
AcDb2dVertex
 10
490.0854818277631
 20
-134.9911273777391
 30
0.0
 70
     8
  0
VERTEX
  5
2B8
330
296
100
AcDbEntity
  8
0
  6
Continuous
 62
     7
100
AcDbVertex
100
AcDb2dVertex
 10
493.5420164296864
 20
-135.0786883060119
 30
0.0
 70
     8
  0
VERTEX
  5
2B9
330
296
100
AcDbEntity
  8
0
  6
Continuous
 62
     7
100
AcDbVertex
100
AcDb2dVertex
 10
497.0890375250153
 20
-134.9598114692746
 30
0.0
 70
     8
  0
VERTEX
  5
2BA
330
296
100
AcDbEntity
  8
0
  6
Continuous
 62
     7
100
AcDbVertex
100
AcDb2dVertex
 10
500.7458291205411
 20
-134.6555114903126
 30
0.0
 70
     8
  0
VERTEX
  5
2BB
330
296
100
AcDbEntity
  8
0
  6
Continuous
 62
     7
100
AcDbVertex
100
AcDb2dVertex
 10
504.5316752230553
 20
-134.1868029919115
 30
0.0
 70
     8
  0
VERTEX
  5
2BC
330
296
100
AcDbEntity
  8
0
  6
Continuous
 62
     7
100
AcDbVertex
100
AcDb2dVertex
 10
508.4600087090834
 20
-133.5706624928704
 30
0.0
 70
     8
  0
VERTEX
  5
2BD
330
296
100
AcDbEntity
  8
0
  6
Continuous
 62
     7
100
AcDbVertex
100
AcDb2dVertex
 10
512.5208579340881
 20
-132.8079140960438
 30
0.0
 70
     8
  0
VERTEX
  5
2BE
330
296
100
AcDbEntity
  8
0
  6
Continuous
 62
     7
100
AcDbVertex
100
AcDb2dVertex
 10
516.698400123266
 20
-131.8953438002997
 30
0.0
 70
     8
  0
VERTEX
  5
2BF
330
296
100
AcDbEntity
  8
0
  6
Continuous
 62
     7
100
AcDbVertex
100
AcDb2dVertex
 10
520.9768125018143
 20
-130.8297376045061
 30
0.0
 70
     8
  0
VERTEX
  5
2C0
330
296
100
AcDbEntity
  8
0
  6
Continuous
 62
     7
100
AcDbVertex
100
AcDb2dVertex
 10
525.3402722949296
 20
-129.6078815075313
 30
0.0
 70
     8
  0
VERTEX
  5
2C1
330
296
100
AcDbEntity
  8
0
  6
Continuous
 62
     7
100
AcDbVertex
100
AcDb2dVertex
 10
529.7729567278086
 20
-128.2265615082433
 30
0.0
 70
     8
  0
VERTEX
  5
2C2
330
296
100
AcDbEntity
  8
0
  6
Continuous
 62
     7
100
AcDbVertex
100
AcDb2dVertex
 10
534.2590430256485
 20
-126.6825636055103
 30
0.0
 70
     8
  0
VERTEX
  5
2C3
330
296
100
AcDbEntity
  8
0
  6
Continuous
 62
     7
100
AcDbVertex
100
AcDb2dVertex
 10
538.7827084136457
 20
-124.9726737982002
 30
0.0
 70
     8
  0
VERTEX
  5
2C4
330
296
100
AcDbEntity
  8
0
  6
Continuous
 62
     7
100
AcDbVertex
100
AcDb2dVertex
 10
543.3281301169974
 20
-123.0936780851814
 30
0.0
 70
     8
  0
VERTEX
  5
2C5
330
296
100
AcDbEntity
  8
0
  6
Continuous
 62
     7
100
AcDbVertex
100
AcDb2dVertex
 10
547.8794853609003
 20
-121.0423624653217
 30
0.0
 70
     8
  0
VERTEX
  5
2C6
330
296
100
AcDbEntity
  8
0
  6
Continuous
 62
     7
100
AcDbVertex
100
AcDb2dVertex
 10
552.420951370551
 20
-118.8155129374895
 30
0.0
 70
     8
  0
VERTEX
  5
2C7
330
296
100
AcDbEntity
  8
0
  6
Continuous
 62
     7
100
AcDbVertex
100
AcDb2dVertex
 10
556.9367053711468
 20
-116.4099155005527
 30
0.0
 70
     8
  0
VERTEX
  5
2C8
330
296
100
AcDbEntity
  8
0
  6
Continuous
 62
     7
100
AcDbVertex
100
AcDb2dVertex
 10
561.4109245878842
 20
-113.8223561533794
 30
0.0
 70
     8
  0
VERTEX
  5
2C9
330
296
100
AcDbEntity
  8
0
  6
Continuous
 62
     7
100
AcDbVertex
100
AcDb2dVertex
 10
565.8277862459602
 20
-111.0496208948379
 30
0.0
 70
     8
  0
VERTEX
  5
2CA
330
296
100
AcDbEntity
  8
0
  6
Continuous
 62
     7
100
AcDbVertex
100
AcDb2dVertex
 10
570.1714675705714
 20
-108.0884957237961
 30
0.0
 70
     8
  0
VERTEX
  5
2CB
330
296
100
AcDbEntity
  8
0
  6
Continuous
 62
     7
100
AcDbVertex
100
AcDb2dVertex
 10
574.4261457869148
 20
-104.9357666391222
 30
0.0
 70
     8
  0
VERTEX
  5
2CC
330
296
100
AcDbEntity
  8
0
  6
Continuous
 62
     7
100
AcDbVertex
100
AcDb2dVertex
 10
578.5759981201874
 20
-101.5882196396843
 30
0.0
 70
     8
  0
VERTEX
  5
2CD
330
296
100
AcDbEntity
  8
0
  6
Continuous
 62
     7
100
AcDbVertex
100
AcDb2dVertex
 10
582.6052017955857
 20
-98.04264072435052
 30
0.0
 70
     8
  0
VERTEX
  5
2CE
330
296
100
AcDbEntity
  8
0
  6
Continuous
 62
     7
100
AcDbVertex
100
AcDb2dVertex
 10
586.4979340383065
 20
-94.29581589198894
 30
0.0
 70
     8
  0
VERTEX
  5
2CF
330
296
100
AcDbEntity
  8
0
  6
Continuous
 62
     7
100
AcDbVertex
100
AcDb2dVertex
 10
590.2383720735471
 20
-90.34453114146768
 30
0.0
 70
     8
  0
VERTEX
  5
2D0
330
296
100
AcDbEntity
  8
0
  6
Continuous
 62
     7
100
AcDbVertex
100
AcDb2dVertex
 10
593.8148136407758
 20
-86.18800357507513
 30
0.0
 70
     8
  0
VERTEX
  5
2D1
330
296
100
AcDbEntity
  8
0
  6
Continuous
 62
     7
100
AcDbVertex
100
AcDb2dVertex
 10
597.2320385365474
 20
-81.83517470878077
 30
0.0
 70
     8
  0
VERTEX
  5
2D2
330
296
100
AcDbEntity
  8
0
  6
Continuous
 62
     7
100
AcDbVertex
100
AcDb2dVertex
 10
600.4989470716889
 20
-77.29741716197438
 30
0.0
 70
     8
  0
VERTEX
  5
2D3
330
296
100
AcDbEntity
  8
0
  6
Continuous
 62
     7
100
AcDbVertex
100
AcDb2dVertex
 10
603.6244395570272
 20
-72.58610355404575
 30
0.0
 70
     8
  0
VERTEX
  5
2D4
330
296
100
AcDbEntity
  8
0
  6
Continuous
 62
     7
100
AcDbVertex
100
AcDb2dVertex
 10
606.617416303389
 20
-67.71260650438464
 30
0.0
 70
     8
  0
VERTEX
  5
2D5
330
296
100
AcDbEntity
  8
0
  6
Continuous
 62
     7
100
AcDbVertex
100
AcDb2dVertex
 10
609.4867776216008
 20
-62.68829863238084
 30
0.0
 70
     8
  0
VERTEX
  5
2D6
330
296
100
AcDbEntity
  8
0
  6
Continuous
 62
     7
100
AcDbVertex
100
AcDb2dVertex
 10
612.2414238224899
 20
-57.52455255742412
 30
0.0
 70
     8
  0
VERTEX
  5
2D7
330
296
100
AcDbEntity
  8
0
  6
Continuous
 62
     7
100
AcDbVertex
100
AcDb2dVertex
 10
614.8902552168826
 20
-52.23274089890427
 30
0.0
 70
     8
  0
VERTEX
  5
2D8
330
296
100
AcDbEntity
  8
0
  6
Continuous
 62
     7
100
AcDbVertex
100
AcDb2dVertex
 10
617.4421721156061
 20
-46.82423627621105
 30
0.0
 70
     8
  0
VERTEX
  5
2D9
330
296
100
AcDbEntity
  8
0
  6
Continuous
 62
     7
100
AcDbVertex
100
AcDb2dVertex
 10
619.9060748294868
 20
-41.31041130873425
 30
0.0
 70
     8
  0
VERTEX
  5
2DA
330
296
100
AcDbEntity
  8
0
  6
Continuous
 62
     7
100
AcDbVertex
100
AcDb2dVertex
 10
622.2908636693517
 20
-35.70263861586363
 30
0.0
 70
     8
  0
VERTEX
  5
2DB
330
296
100
AcDbEntity
  8
0
  6
Continuous
 62
     7
100
AcDbVertex
100
AcDb2dVertex
 10
624.6054389460277
 20
-30.012290816989
 30
0.0
 70
     8
  0
VERTEX
  5
2DC
330
296
100
AcDbEntity
  8
0
  6
Continuous
 62
     7
100
AcDbVertex
100
AcDb2dVertex
 10
626.8587009703413
 20
-24.25074053150011
 30
0.0
 70
     8
  0
VERTEX
  5
2DD
330
296
100
AcDbEntity
  8
0
  6
Continuous
 62
     7
100
AcDbVertex
100
AcDb2dVertex
 10
629.0595500531194
 20
-18.42936037878673
 30
0.0
 70
     8
  0
VERTEX
  5
2DE
330
296
100
AcDbEntity
  8
0
  6
Continuous
 62
     7
100
AcDbVertex
100
AcDb2dVertex
 10
631.2168865051888
 20
-12.55952297823866
 30
0.0
 70
     8
  0
VERTEX
  5
2DF
330
296
100
AcDbEntity
  8
0
  6
Continuous
 62
     7
100
AcDbVertex
100
AcDb2dVertex
 10
633.3396106373763
 20
-6.652600949245682
 30
0.0
 70
     8
  0
VERTEX
  5
2E0
330
296
100
AcDbEntity
  8
0
  6
Continuous
 62
     7
100
AcDbVertex
100
AcDb2dVertex
 10
635.4366227605086
 20
-0.719966911197524
 30
0.0
 70
     8
  0
VERTEX
  5
2E1
330
296
100
AcDbEntity
  8
0
  6
Continuous
 62
     7
100
AcDbVertex
100
AcDb2dVertex
 10
637.5168231854127
 20
5.227006516515988
 30
0.0
 70
     8
  0
VERTEX
  5
2E2
330
296
100
AcDbEntity
  8
0
  6
Continuous
 62
     7
100
AcDbVertex
100
AcDb2dVertex
 10
639.589112222915
 20
11.17694671450509
 30
0.0
 70
     8
  0
VERTEX
  5
2E3
330
296
100
AcDbEntity
  8
0
  6
Continuous
 62
     7
100
AcDbVertex
100
AcDb2dVertex
 10
641.6623901838425
 20
17.11848106338001
 30
0.0
 70
     8
  0
VERTEX
  5
2E4
330
296
100
AcDbEntity
  8
0
  6
Continuous
 62
     7
100
AcDbVertex
100
AcDb2dVertex
 10
643.7432498910298
 20
23.04180273917422
 30
0.0
 70
     8
  0
VERTEX
  5
2E5
330
296
100
AcDbEntity
  8
0
  6
Continuous
 62
     7
100
AcDbVertex
100
AcDb2dVertex
 10
645.8290542153434
 20
28.94336809961406
 30
0.0
 70
     8
  0
VERTEX
  5
2E6
330
296
100
AcDbEntity
  8
0
  6
Continuous
 62
     7
100
AcDbVertex
100
AcDb2dVertex
 10
647.9148585396568
 20
34.82119929784916
 30
0.0
 70
     8
  0
VERTEX
  5
2E7
330
296
100
AcDbEntity
  8
0
  6
Continuous
 62
     7
100
AcDbVertex
100
AcDb2dVertex
 10
649.9957182468443
 20
40.67331848702911
 30
0.0
 70
     8
  0
VERTEX
  5
2E8
330
296
100
AcDbEntity
  8
0
  6
Continuous
 62
     7
100
AcDbVertex
100
AcDb2dVertex
 10
652.0666887197797
 20
46.49774782030351
 30
0.0
 70
     8
  0
VERTEX
  5
2E9
330
296
100
AcDbEntity
  8
0
  6
Continuous
 62
     7
100
AcDbVertex
100
AcDb2dVertex
 10
654.1228253413371
 20
52.29250945082198
 30
0.0
 70
     8
  0
VERTEX
  5
2EA
330
296
100
AcDbEntity
  8
0
  6
Continuous
 62
     7
100
AcDbVertex
100
AcDb2dVertex
 10
656.1591834943906
 20
58.0556255317341
 30
0.0
 70
     8
  0
VERTEX
  5
2EB
330
296
100
AcDbEntity
  8
0
  6
Continuous
 62
     7
100
AcDbVertex
100
AcDb2dVertex
 10
658.1708185618143
 20
63.7851182161895
 30
0.0
 70
     8
  0
VERTEX
  5
2EC
330
296
100
AcDbEntity
  8
0
  6
Continuous
 62
     7
100
AcDbVertex
100
AcDb2dVertex
 10
660.1527859264819
 20
69.47900965733777
 30
0.0
 70
     8
  0
VERTEX
  5
2ED
330
296
100
AcDbEntity
  8
0
  6
Continuous
 62
     7
100
AcDbVertex
100
AcDb2dVertex
 10
662.1001409712676
 20
75.13532200832852
 30
0.0
 70
     8
  0
VERTEX
  5
2EE
330
296
100
AcDbEntity
  8
0
  6
Continuous
 62
     7
100
AcDbVertex
100
AcDb2dVertex
 10
664.0079390790453
 20
80.75207742231133
 30
0.0
 70
     8
  0
VERTEX
  5
2EF
330
296
100
AcDbEntity
  8
0
  6
Continuous
 62
     7
100
AcDbVertex
100
AcDb2dVertex
 10
665.8712356326893
 20
86.32729805243585
 30
0.0
 70
     8
  0
VERTEX
  5
2F0
330
296
100
AcDbEntity
  8
0
  6
Continuous
 62
     7
100
AcDbVertex
100
AcDb2dVertex
 10
667.6850860150731
 20
91.85900605185165
 30
0.0
 70
     8
  0
VERTEX
  5
2F1
330
296
100
AcDbEntity
  8
0
  6
Continuous
 62
     7
100
AcDbVertex
100
AcDb2dVertex
 10
669.4445456090713
 20
97.34522357370835
 30
0.0
 70
     8
  0
VERTEX
  5
2F2
330
296
100
AcDbEntity
  8
0
  6
Continuous
 62
     7
100
AcDbVertex
100
AcDb2dVertex
 10
671.1446697975574
 20
102.7839727711555
 30
0.0
 70
     8
  0
VERTEX
  5
2F3
330
296
100
AcDbEntity
  8
0
  6
Continuous
 62
     7
100
AcDbVertex
100
AcDb2dVertex
 10
672.7805139634057
 20
108.1732757973428
 30
0.0
 70
     8
  0
VERTEX
  5
2F4
330
296
100
AcDbEntity
  8
0
  6
Continuous
 62
     7
100
AcDbVertex
100
AcDb2dVertex
 10
674.3471334894901
 20
113.5111548054198
 30
0.0
 70
     8
  0
VERTEX
  5
2F5
330
296
100
AcDbEntity
  8
0
  6
Continuous
 62
     7
100
AcDbVertex
100
AcDb2dVertex
 10
675.839583758685
 20
118.7956319485361
 30
0.0
 70
     8
  0
VERTEX
  5
2F6
330
296
100
AcDbEntity
  8
0
  6
Continuous
 62
     7
100
AcDbVertex
100
AcDb2dVertex
 10
677.2529201538637
 20
124.0247293798413
 30
0.0
 70
     8
  0
VERTEX
  5
2F7
330
296
100
AcDbEntity
  8
0
  6
Continuous
 62
     7
100
AcDbVertex
100
AcDb2dVertex
 10
678.5821980579007
 20
129.196469252485
 30
0.0
 70
     8
  0
VERTEX
  5
2F8
330
296
100
AcDbEntity
  8
0
  6
Continuous
 62
     7
100
AcDbVertex
100
AcDb2dVertex
 10
679.8235441873804
 20
134.3103571047547
 30
0.0
 70
     8
  0
VERTEX
  5
2F9
330
296
100
AcDbEntity
  8
0
  6
Continuous
 62
     7
100
AcDbVertex
100
AcDb2dVertex
 10
680.9773705937301
 20
139.3718320154888
 30
0.0
 70
     8
  0
VERTEX
  5
2FA
330
296
100
AcDbEntity
  8
0
  6
Continuous
 62
     7
100
AcDbVertex
100
AcDb2dVertex
 10
682.0451606620877
 20
144.3878164486639
 30
0.0
 70
     8
  0
VERTEX
  5
2FB
330
296
100
AcDbEntity
  8
0
  6
Continuous
 62
     7
100
AcDbVertex
100
AcDb2dVertex
 10
683.0283977775907
 20
149.3652328682563
 30
0.0
 70
     8
  0
VERTEX
  5
2FC
330
296
100
AcDbEntity
  8
0
  6
Continuous
 62
     7
100
AcDbVertex
100
AcDb2dVertex
 10
683.9285653253772
 20
154.3110037382422
 30
0.0
 70
     8
  0
VERTEX
  5
2FD
330
296
100
AcDbEntity
  8
0
  6
Continuous
 62
     7
100
AcDbVertex
100
AcDb2dVertex
 10
684.7471466905849
 20
159.2320515225983
 30
0.0
 70
     8
  0
VERTEX
  5
2FE
330
296
100
AcDbEntity
  8
0
  6
Continuous
 62
     7
100
AcDbVertex
100
AcDb2dVertex
 10
685.4856252583514
 20
164.1352986853008
 30
0.0
 70
     8
  0
VERTEX
  5
2FF
330
296
100
AcDbEntity
  8
0
  6
Continuous
 62
     7
100
AcDbVertex
100
AcDb2dVertex
 10
686.1454844138149
 20
169.0276676903261
 30
0.0
 70
     8
  0
VERTEX
  5
300
330
296
100
AcDbEntity
  8
0
  6
Continuous
 62
     7
100
AcDbVertex
100
AcDb2dVertex
 10
686.7282075421126
 20
173.9160810016506
 30
0.0
 70
     8
  0
VERTEX
  5
301
330
296
100
AcDbEntity
  8
0
  6
Continuous
 62
     7
100
AcDbVertex
100
AcDb2dVertex
 10
687.235278028383
 20
178.8074610832508
 30
0.0
 70
     8
  0
VERTEX
  5
302
330
296
100
AcDbEntity
  8
0
  6
Continuous
 62
     7
100
AcDbVertex
100
AcDb2dVertex
 10
687.6681792577634
 20
183.7087303991028
 30
0.0
 70
     8
  0
VERTEX
  5
303
330
296
100
AcDbEntity
  8
0
  6
Continuous
 62
     7
100
AcDbVertex
100
AcDb2dVertex
 10
688.0283946153919
 20
188.6268114131833
 30
0.0
 70
     8
  0
VERTEX
  5
304
330
296
100
AcDbEntity
  8
0
  6
Continuous
 62
     7
100
AcDbVertex
100
AcDb2dVertex
 10
688.317407486406
 20
193.5686265894685
 30
0.0
 70
     8
  0
VERTEX
  5
305
330
296
100
AcDbEntity
  8
0
  6
Continuous
 62
     7
100
AcDbVertex
100
AcDb2dVertex
 10
688.5367012559436
 20
198.5410983919348
 30
0.0
 70
     8
  0
VERTEX
  5
306
330
296
100
AcDbEntity
  8
0
  6
Continuous
 62
     7
100
AcDbVertex
100
AcDb2dVertex
 10
688.6877593091426
 20
203.5511492845587
 30
0.0
 70
     8
  0
VERTEX
  5
307
330
296
100
AcDbEntity
  8
0
  6
Continuous
 62
     7
100
AcDbVertex
100
AcDb2dVertex
 10
688.7720650311406
 20
208.6057017313165
 30
0.0
 70
     8
  0
VERTEX
  5
308
330
296
100
AcDbEntity
  8
0
  6
Continuous
 62
     7
100
AcDbVertex
100
AcDb2dVertex
 10
688.7911018070758
 20
213.7116781961846
 30
0.0
 70
     8
  0
VERTEX
  5
309
330
296
100
AcDbEntity
  8
0
  6
Continuous
 62
     7
100
AcDbVertex
100
AcDb2dVertex
 10
688.7463530220855
 20
218.8760011431393
 30
0.0
 70
     8
  0
VERTEX
  5
30A
330
296
100
AcDbEntity
  8
0
  6
Continuous
 62
     7
100
AcDbVertex
100
AcDb2dVertex
 10
688.6393020613078
 20
224.1055930361571
 30
0.0
 70
     8
  0
VERTEX
  5
30B
330
296
100
AcDbEntity
  8
0
  6
Continuous
 62
     7
100
AcDbVertex
100
AcDb2dVertex
 10
688.4714323098806
 20
229.4073763392144
 30
0.0
 70
     8
  0
VERTEX
  5
30C
330
296
100
AcDbEntity
  8
0
  6
Continuous
 62
     7
100
AcDbVertex
100
AcDb2dVertex
 10
688.2444743837975
 20
234.7865429002933
 30
0.0
 70
     8
  0
VERTEX
  5
30D
330
296
100
AcDbEntity
  8
0
  6
Continuous
 62
     7
100
AcDbVertex
100
AcDb2dVertex
 10
687.9611478224782
 20
240.2413621034
 30
0.0
 70
     8
  0
VERTEX
  5
30E
330
296
100
AcDbEntity
  8
0
  6
Continuous
 62
     7
100
AcDbVertex
100
AcDb2dVertex
 10
687.6244193961983
 20
245.7683727165461
 30
0.0
 70
     8
  0
VERTEX
  5
30F
330
296
100
AcDbEntity
  8
0
  6
Continuous
 62
     7
100
AcDbVertex
100
AcDb2dVertex
 10
687.2372558752332
 20
251.3641135077434
 30
0.0
 70
     8
  0
VERTEX
  5
310
330
296
100
AcDbEntity
  8
0
  6
Continuous
 62
     7
100
AcDbVertex
100
AcDb2dVertex
 10
686.8026240298589
 20
257.0251232450039
 30
0.0
 70
     8
  0
VERTEX
  5
311
330
296
100
AcDbEntity
  8
0
  6
Continuous
 62
     7
100
AcDbVertex
100
AcDb2dVertex
 10
686.3234906303502
 20
262.7479406963392
 30
0.0
 70
     8
  0
VERTEX
  5
312
330
296
100
AcDbEntity
  8
0
  6
Continuous
 62
     7
100
AcDbVertex
100
AcDb2dVertex
 10
685.8028224469836
 20
268.5291046297612
 30
0.0
 70
     8
  0
VERTEX
  5
313
330
296
100
AcDbEntity
  8
0
  6
Continuous
 62
     7
100
AcDbVertex
100
AcDb2dVertex
 10
685.2435862500341
 20
274.3651538132817
 30
0.0
 70
     8
  0
VERTEX
  5
314
330
296
100
AcDbEntity
  8
0
  6
Continuous
 62
     7
100
AcDbVertex
100
AcDb2dVertex
 10
684.6487488097775
 20
280.2526270149124
 30
0.0
 70
     8
  0
VERTEX
  5
315
330
296
100
AcDbEntity
  8
0
  6
Continuous
 62
     7
100
AcDbVertex
100
AcDb2dVertex
 10
684.0212768964893
 20
286.1880630026653
 30
0.0
 70
     8
  0
VERTEX
  5
316
330
296
100
AcDbEntity
  8
0
  6
Continuous
 62
     7
100
AcDbVertex
100
AcDb2dVertex
 10
683.3641372804453
 20
292.1680005445521
 30
0.0
 70
     8
  0
VERTEX
  5
317
330
296
100
AcDbEntity
  8
0
  6
Continuous
 62
     7
100
AcDbVertex
100
AcDb2dVertex
 10
682.680296731921
 20
298.1889784085846
 30
0.0
 70
     8
  0
VERTEX
  5
318
330
296
100
AcDbEntity
  8
0
  6
Continuous
 62
     7
100
AcDbVertex
100
AcDb2dVertex
 10
681.9727220211917
 20
304.2475353627746
 30
0.0
 70
     8
  0
VERTEX
  5
319
330
296
100
AcDbEntity
  8
0
  6
Continuous
 62
     7
100
AcDbVertex
100
AcDb2dVertex
 10
681.2443799185335
 20
310.340210175134
 30
0.0
 70
     8
  0
VERTEX
  5
31A
330
296
100
AcDbEntity
  8
0
  6
Continuous
 62
     7
100
AcDbVertex
100
AcDb2dVertex
 10
680.4982371942216
 20
316.4635416136744
 30
0.0
 70
     8
  0
VERTEX
  5
31B
330
296
100
AcDbEntity
  8
0
  6
Continuous
 62
     7
100
AcDbVertex
100
AcDb2dVertex
 10
679.7372606185319
 20
322.6140684464079
 30
0.0
 70
     8
  0
VERTEX
  5
31C
330
296
100
AcDbEntity
  8
0
  6
Continuous
 62
     7
100
AcDbVertex
100
AcDb2dVertex
 10
678.9644169617394
 20
328.788329441346
 30
0.0
 70
     8
  0
VERTEX
  5
31D
330
296
100
AcDbEntity
  8
0
  6
Continuous
 62
     7
100
AcDbVertex
100
AcDb2dVertex
 10
678.1826729941204
 20
334.9828633665007
 30
0.0
 70
     8
  0
VERTEX
  5
31E
330
296
100
AcDbEntity
  8
0
  6
Continuous
 62
     7
100
AcDbVertex
100
AcDb2dVertex
 10
677.3949954859502
 20
341.1942089898839
 30
0.0
 70
     8
  0
VERTEX
  5
31F
330
296
100
AcDbEntity
  8
0
  6
Continuous
 62
     7
100
AcDbVertex
100
AcDb2dVertex
 10
676.6043512075044
 20
347.4189050795071
 30
0.0
 70
     8
  0
VERTEX
  5
320
330
296
100
AcDbEntity
  8
0
  6
Continuous
 62
     7
100
AcDbVertex
100
AcDb2dVertex
 10
675.8126355953482
 20
353.6548089679494
 30
0.0
 70
     8
  0
VERTEX
  5
321
330
296
100
AcDbEntity
  8
0
  6
Continuous
 62
     7
100
AcDbVertex
100
AcDb2dVertex
 10
675.0174587512037
 20
359.9050522460569
 30
0.0
 70
     8
  0
VERTEX
  5
322
330
296
100
AcDbEntity
  8
0
  6
Continuous
 62
     7
100
AcDbVertex
100
AcDb2dVertex
 10
674.2153594430827
 20
366.1740850692432
 30
0.0
 70
     8
  0
VERTEX
  5
323
330
296
100
AcDbEntity
  8
0
  6
Continuous
 62
     7
100
AcDbVertex
100
AcDb2dVertex
 10
673.4028764389972
 20
372.4663575929217
 30
0.0
 70
     8
  0
VERTEX
  5
324
330
296
100
AcDbEntity
  8
0
  6
Continuous
 62
     7
100
AcDbVertex
100
AcDb2dVertex
 10
672.5765485069587
 20
378.7863199725057
 30
0.0
 70
     8
  0
VERTEX
  5
325
330
296
100
AcDbEntity
  8
0
  6
Continuous
 62
     7
100
AcDbVertex
100
AcDb2dVertex
 10
671.7329144149794
 20
385.1384223634086
 30
0.0
 70
     8
  0
VERTEX
  5
326
330
296
100
AcDbEntity
  8
0
  6
Continuous
 62
     7
100
AcDbVertex
100
AcDb2dVertex
 10
670.868512931071
 20
391.5271149210439
 30
0.0
 70
     8
  0
VERTEX
  5
327
330
296
100
AcDbEntity
  8
0
  6
Continuous
 62
     7
100
AcDbVertex
100
AcDb2dVertex
 10
669.9798828232451
 20
397.956847800825
 30
0.0
 70
     8
  0
VERTEX
  5
328
330
296
100
AcDbEntity
  8
0
  6
Continuous
 62
     7
100
AcDbVertex
100
AcDb2dVertex
 10
669.0635628595138
 20
404.432071158165
 30
0.0
 70
     8
  0
VERTEX
  5
329
330
296
100
AcDbEntity
  8
0
  6
Continuous
 62
     7
100
AcDbVertex
100
AcDb2dVertex
 10
668.1160918078887
 20
410.9572351484776
 30
0.0
 70
     8
  0
VERTEX
  5
32A
330
296
100
AcDbEntity
  8
0
  6
Continuous
 62
     7
100
AcDbVertex
100
AcDb2dVertex
 10
667.1340084363816
 20
417.5367899271761
 30
0.0
 70
     8
  0
VERTEX
  5
32B
330
296
100
AcDbEntity
  8
0
  6
Continuous
 62
     7
100
AcDbVertex
100
AcDb2dVertex
 10
666.1138515130045
 20
424.1751856496738
 30
0.0
 70
     8
  0
VERTEX
  5
32C
330
296
100
AcDbEntity
  8
0
  6
Continuous
 62
     7
100
AcDbVertex
100
AcDb2dVertex
 10
665.052159805769
 20
430.8768724713843
 30
0.0
 70
     8
  0
VERTEX
  5
32D
330
296
100
AcDbEntity
  8
0
  6
Continuous
 62
     7
100
AcDbVertex
100
AcDb2dVertex
 10
663.945472082687
 20
437.6463005477208
 30
0.0
 70
     8
  0
VERTEX
  5
32E
330
296
100
AcDbEntity
  8
0
  6
Continuous
 62
     7
100
AcDbVertex
100
AcDb2dVertex
 10
662.7903271117704
 20
444.4879200340968
 30
0.0
 70
     8
  0
VERTEX
  5
32F
330
296
100
AcDbEntity
  8
0
  6
Continuous
 62
     7
100
AcDbVertex
100
AcDb2dVertex
 10
661.5832636610307
 20
451.4061810859255
 30
0.0
 70
     8
  0
VERTEX
  5
330
330
296
100
AcDbEntity
  8
0
  6
Continuous
 62
     7
100
AcDbVertex
100
AcDb2dVertex
 10
660.3208204984802
 20
458.4055338586206
 30
0.0
 70
     8
  0
VERTEX
  5
331
330
296
100
AcDbEntity
  8
0
  6
Continuous
 62
     7
100
AcDbVertex
100
AcDb2dVertex
 10
658.9995363921302
 20
465.4904285075953
 30
0.0
 70
     8
  0
VERTEX
  5
332
330
296
100
AcDbEntity
  8
0
  6
Continuous
 62
     7
100
AcDbVertex
100
AcDb2dVertex
 10
657.6159501099928
 20
472.665315188263
 30
0.0
 70
     8
  0
VERTEX
  5
333
330
296
100
AcDbEntity
  8
0
  6
Continuous
 62
     7
100
AcDbVertex
100
AcDb2dVertex
 10
656.1666004200797
 20
479.9346440560369
 30
0.0
 70
     8
  0
VERTEX
  5
334
330
296
100
AcDbEntity
  8
0
  6
Continuous
 62
     7
100
AcDbVertex
100
AcDb2dVertex
 10
654.6502511681094
 20
487.2993216240571
 30
0.0
 70
     8
  0
VERTEX
  5
335
330
296
100
AcDbEntity
  8
0
  6
Continuous
 62
     7
100
AcDbVertex
100
AcDb2dVertex
 10
653.0745665106274
 20
494.7460798363689
 30
0.0
 70
     8
  0
VERTEX
  5
336
330
296
100
AcDbEntity
  8
0
  6
Continuous
 62
     7
100
AcDbVertex
100
AcDb2dVertex
 10
651.4494356818853
 20
502.2581069947436
 30
0.0
 70
     8
  0
VERTEX
  5
337
330
296
100
AcDbEntity
  8
0
  6
Continuous
 62
     7
100
AcDbVertex
100
AcDb2dVertex
 10
649.7847479161354
 20
509.818591400953
 30
0.0
 70
     8
  0
VERTEX
  5
338
330
296
100
AcDbEntity
  8
0
  6
Continuous
 62
     7
100
AcDbVertex
100
AcDb2dVertex
 10
648.0903924476295
 20
517.4107213567688
 30
0.0
 70
     8
  0
VERTEX
  5
339
330
296
100
AcDbEntity
  8
0
  6
Continuous
 62
     7
100
AcDbVertex
100
AcDb2dVertex
 10
646.3762585106198
 20
525.0176851639626
 30
0.0
 70
     8
  0
VERTEX
  5
33A
330
296
100
AcDbEntity
  8
0
  6
Continuous
 62
     7
100
AcDbVertex
100
AcDb2dVertex
 10
644.6522353393578
 20
532.622671124306
 30
0.0
 70
     8
  0
VERTEX
  5
33B
330
296
100
AcDbEntity
  8
0
  6
Continuous
 62
     7
100
AcDbVertex
100
AcDb2dVertex
 10
642.928212168096
 20
540.2088675395706
 30
0.0
 70
     8
  0
VERTEX
  5
33C
330
296
100
AcDbEntity
  8
0
  6
Continuous
 62
     7
100
AcDbVertex
100
AcDb2dVertex
 10
641.2140782310863
 20
547.7594627115282
 30
0.0
 70
     8
  0
VERTEX
  5
33D
330
296
100
AcDbEntity
  8
0
  6
Continuous
 62
     7
100
AcDbVertex
100
AcDb2dVertex
 10
639.5197227625805
 20
555.2576449419502
 30
0.0
 70
     8
  0
VERTEX
  5
33E
330
296
100
AcDbEntity
  8
0
  6
Continuous
 62
     7
100
AcDbVertex
100
AcDb2dVertex
 10
637.8550349968306
 20
562.6866025326083
 30
0.0
 70
     8
  0
VERTEX
  5
33F
330
296
100
AcDbEntity
  8
0
  6
Continuous
 62
     7
100
AcDbVertex
100
AcDb2dVertex
 10
636.2299041680885
 20
570.0295237852743
 30
0.0
 70
     8
  0
VERTEX
  5
340
330
296
100
AcDbEntity
  8
0
  6
Continuous
 62
     7
100
AcDbVertex
100
AcDb2dVertex
 10
634.6542195106064
 20
577.2695970017194
 30
0.0
 70
     8
  0
VERTEX
  5
341
330
296
100
AcDbEntity
  8
0
  6
Continuous
 62
     7
100
AcDbVertex
100
AcDb2dVertex
 10
633.1378702586362
 20
584.3900104837159
 30
0.0
 70
     8
  0
VERTEX
  5
342
330
296
100
AcDbEntity
  8
0
  6
Continuous
 62
     7
100
AcDbVertex
100
AcDb2dVertex
 10
631.6907456464297
 20
591.3739525330349
 30
0.0
 70
     8
  0
VERTEX
  5
343
330
296
100
AcDbEntity
  8
0
  6
Continuous
 62
     7
100
AcDbVertex
100
AcDb2dVertex
 10
630.3227349082393
 20
598.2046114514483
 30
0.0
 70
     8
  0
VERTEX
  5
344
330
296
100
AcDbEntity
  8
0
  6
Continuous
 62
     7
100
AcDbVertex
100
AcDb2dVertex
 10
629.0437272783165
 20
604.8651755407275
 30
0.0
 70
     8
  0
VERTEX
  5
345
330
296
100
AcDbEntity
  8
0
  6
Continuous
 62
     7
100
AcDbVertex
100
AcDb2dVertex
 10
627.8636119909136
 20
611.3388331026443
 30
0.0
 70
     8
  0
VERTEX
  5
346
330
296
100
AcDbEntity
  8
0
  6
Continuous
 62
     7
100
AcDbVertex
100
AcDb2dVertex
 10
626.7922782802824
 20
617.6087724389705
 30
0.0
 70
     8
  0
VERTEX
  5
347
330
296
100
AcDbEntity
  8
0
  6
Continuous
 62
     7
100
AcDbVertex
100
AcDb2dVertex
 10
625.8396153806749
 20
623.6581818514771
 30
0.0
 70
     8
  0
VERTEX
  5
348
330
296
100
AcDbEntity
  8
0
  6
Continuous
 62
     7
100
AcDbVertex
100
AcDb2dVertex
 10
625.0130402177801
 20
629.4743701562082
 30
0.0
 70
     8
  0
VERTEX
  5
349
330
296
100
AcDbEntity
  8
0
  6
Continuous
 62
     7
100
AcDbVertex
100
AcDb2dVertex
 10
624.3100804830352
 20
635.0611282262934
 30
0.0
 70
     8
  0
VERTEX
  5
34A
330
296
100
AcDbEntity
  8
0
  6
Continuous
 62
     7
100
AcDbVertex
100
AcDb2dVertex
 10
623.7257915593143
 20
640.4263674491342
 30
0.0
 70
     8
  0
VERTEX
  5
34B
330
296
100
AcDbEntity
  8
0
  6
Continuous
 62
     7
100
AcDbVertex
100
AcDb2dVertex
 10
623.2552288294909
 20
645.5779992121322
 30
0.0
 70
     8
  0
VERTEX
  5
34C
330
296
100
AcDbEntity
  8
0
  6
Continuous
 62
     7
100
AcDbVertex
100
AcDb2dVertex
 10
622.8934476764392
 20
650.5239349026891
 30
0.0
 70
     8
  0
VERTEX
  5
34D
330
296
100
AcDbEntity
  8
0
  6
Continuous
 62
     7
100
AcDbVertex
100
AcDb2dVertex
 10
622.6355034830334
 20
655.2720859082063
 30
0.0
 70
     8
  0
VERTEX
  5
34E
330
296
100
AcDbEntity
  8
0
  6
Continuous
 62
     7
100
AcDbVertex
100
AcDb2dVertex
 10
622.4764516321474
 20
659.8303636160856
 30
0.0
 70
     8
  0
VERTEX
  5
34F
330
296
100
AcDbEntity
  8
0
  6
Continuous
 62
     7
100
AcDbVertex
100
AcDb2dVertex
 10
622.4113475066553
 20
664.2066794137284
 30
0.0
 70
     8
  0
VERTEX
  5
350
330
296
100
AcDbEntity
  8
0
  6
Continuous
 62
     7
100
AcDbVertex
100
AcDb2dVertex
 10
622.435246489431
 20
668.4089446885364
 30
0.0
 70
     8
  0
VERTEX
  5
351
330
296
100
AcDbEntity
  8
0
  6
Continuous
 62
     7
100
AcDbVertex
100
AcDb2dVertex
 10
622.5432039633484
 20
672.4450708279111
 30
0.0
 70
     8
  0
VERTEX
  5
352
330
296
100
AcDbEntity
  8
0
  6
Continuous
 62
     7
100
AcDbVertex
100
AcDb2dVertex
 10
622.7302753112816
 20
676.3229692192542
 30
0.0
 70
     8
  0
VERTEX
  5
353
330
296
100
AcDbEntity
  8
0
  6
Continuous
 62
     7
100
AcDbVertex
100
AcDb2dVertex
 10
622.9915159161047
 20
680.050551249967
 30
0.0
 70
     8
  0
VERTEX
  5
354
330
296
100
AcDbEntity
  8
0
  6
Continuous
 62
     7
100
AcDbVertex
100
AcDb2dVertex
 10
623.3219811606917
 20
683.6357283074515
 30
0.0
 70
     8
  0
VERTEX
  5
355
330
296
100
AcDbEntity
  8
0
  6
Continuous
 62
     7
100
AcDbVertex
100
AcDb2dVertex
 10
623.7167264279166
 20
687.086411779109
 30
0.0
 70
     8
  0
VERTEX
  5
356
330
296
100
AcDbEntity
  8
0
  6
Continuous
 62
     7
100
AcDbVertex
100
AcDb2dVertex
 10
624.1708071006534
 20
690.410513052341
 30
0.0
 70
     8
  0
VERTEX
  5
357
330
296
100
AcDbEntity
  8
0
  6
Continuous
 62
     7
100
AcDbVertex
100
AcDb2dVertex
 10
624.6792785617761
 20
693.6159435145497
 30
0.0
 70
     8
  0
VERTEX
  5
358
330
296
100
AcDbEntity
  8
0
  6
Continuous
 62
     7
100
AcDbVertex
100
AcDb2dVertex
 10
625.2371961941584
 20
696.7106145531358
 30
0.0
 70
     8
  0
VERTEX
  5
359
330
296
100
AcDbEntity
  8
0
  6
Continuous
 62
     7
100
AcDbVertex
100
AcDb2dVertex
 10
625.839615380675
 20
699.7024375555014
 30
0.0
 70
     8
  0
VERTEX
  5
35A
330
296
100
AcDbEntity
  8
0
  6
Continuous
 62
     7
100
AcDbVertex
100
AcDb2dVertex
 10
626.4815915041993
 20
702.599323909048
 30
0.0
 70
     8
  0
VERTEX
  5
35B
330
296
100
AcDbEntity
  8
0
  6
Continuous
 62
     7
100
AcDbVertex
100
AcDb2dVertex
 10
627.1581799476056
 20
705.4091850011772
 30
0.0
 70
     8
  0
VERTEX
  5
35C
330
296
100
AcDbEntity
  8
0
  6
Continuous
 62
     7
100
AcDbVertex
100
AcDb2dVertex
 10
627.8662491200472
 20
708.139437757578
 30
0.0
 70
     8
  0
VERTEX
  5
35D
330
296
100
AcDbEntity
  8
0
  6
Continuous
 62
     7
100
AcDbVertex
100
AcDb2dVertex
 10
628.6099195357962
 20
710.7955212570888
 30
0.0
 70
     8
  0
VERTEX
  5
35E
330
296
100
AcDbEntity
  8
0
  6
Continuous
 62
     7
100
AcDbVertex
100
AcDb2dVertex
 10
629.3951247354033
 20
713.3823801168357
 30
0.0
 70
     8
  0
VERTEX
  5
35F
330
296
100
AcDbEntity
  8
0
  6
Continuous
 62
     7
100
AcDbVertex
100
AcDb2dVertex
 10
630.2277982594201
 20
715.9049589539451
 30
0.0
 70
     8
  0
VERTEX
  5
360
330
296
100
AcDbEntity
  8
0
  6
Continuous
 62
     7
100
AcDbVertex
100
AcDb2dVertex
 10
631.1138736483974
 20
718.3682023855423
 30
0.0
 70
     8
  0
VERTEX
  5
361
330
296
100
AcDbEntity
  8
0
  6
Continuous
 62
     7
100
AcDbVertex
100
AcDb2dVertex
 10
632.0592844428868
 20
720.7770550287538
 30
0.0
 70
     8
  0
VERTEX
  5
362
330
296
100
AcDbEntity
  8
0
  6
Continuous
 62
     7
100
AcDbVertex
100
AcDb2dVertex
 10
633.0699641834391
 20
723.1364615007053
 30
0.0
 70
     8
  0
VERTEX
  5
363
330
296
100
AcDbEntity
  8
0
  6
Continuous
 62
     7
100
AcDbVertex
100
AcDb2dVertex
 10
634.1518464106057
 20
725.451366418523
 30
0.0
 70
     8
  0
VERTEX
  5
364
330
296
100
AcDbEntity
  8
0
  6
Continuous
 62
     7
100
AcDbVertex
100
AcDb2dVertex
 10
635.3108646649378
 20
727.7267143993325
 30
0.0
 70
     8
  0
VERTEX
  5
365
330
296
100
AcDbEntity
  8
0
  6
Continuous
 62
     7
100
AcDbVertex
100
AcDb2dVertex
 10
636.5529524869863
 20
729.9674500602604
 30
0.0
 70
     8
  0
VERTEX
  5
366
330
296
100
AcDbEntity
  8
0
  6
Continuous
 62
     7
100
AcDbVertex
100
AcDb2dVertex
 10
637.8840434173029
 20
732.1785180184323
 30
0.0
 70
     8
  0
VERTEX
  5
367
330
296
100
AcDbEntity
  8
0
  6
Continuous
 62
     7
100
AcDbVertex
100
AcDb2dVertex
 10
639.3100709964383
 20
734.3648628909741
 30
0.0
 70
     8
  0
VERTEX
  5
368
330
296
100
AcDbEntity
  8
0
  6
Continuous
 62
     7
100
AcDbVertex
100
AcDb2dVertex
 10
640.8369687649441
 20
736.5314292950121
 30
0.0
 70
     8
  0
VERTEX
  5
369
330
296
100
AcDbEntity
  8
0
  6
Continuous
 62
     7
100
AcDbVertex
100
AcDb2dVertex
 10
642.4706702633712
 20
738.6831618476721
 30
0.0
 70
     8
  0
VERTEX
  5
36A
330
296
100
AcDbEntity
  8
0
  6
Continuous
 62
     7
100
AcDbVertex
100
AcDb2dVertex
 10
644.2171090322707
 20
740.8250051660799
 30
0.0
 70
     8
  0
VERTEX
  5
36B
330
296
100
AcDbEntity
  8
0
  6
Continuous
 62
     7
100
AcDbVertex
100
AcDb2dVertex
 10
646.0822186121942
 20
742.961903867362
 30
0.0
 70
     8
  0
VERTEX
  5
36C
330
296
100
AcDbEntity
  8
0
  6
Continuous
 62
     7
100
AcDbVertex
100
AcDb2dVertex
 10
648.0719325436926
 20
745.098802568644
 30
0.0
 70
     8
  0
VERTEX
  5
36D
330
296
100
AcDbEntity
  8
0
  6
Continuous
 62
     7
100
AcDbVertex
100
AcDb2dVertex
 10
650.1921843673172
 20
747.240645887052
 30
0.0
 70
     8
  0
VERTEX
  5
36E
330
296
100
AcDbEntity
  8
0
  6
Continuous
 62
     7
100
AcDbVertex
100
AcDb2dVertex
 10
652.4489076236189
 20
749.3923784397119
 30
0.0
 70
     8
  0
VERTEX
  5
36F
330
296
100
AcDbEntity
  8
0
  6
Continuous
 62
     7
100
AcDbVertex
100
AcDb2dVertex
 10
654.8480358531492
 20
751.5589448437497
 30
0.0
 70
     8
  0
VERTEX
  5
370
330
296
100
AcDbEntity
  8
0
  6
Continuous
 62
     7
100
AcDbVertex
100
AcDb2dVertex
 10
657.3942252370349
 20
753.7435591002977
 30
0.0
 70
     8
  0
VERTEX
  5
371
330
296
100
AcDbEntity
  8
0
  6
Continuous
 62
     7
100
AcDbVertex
100
AcDb2dVertex
 10
660.0870225187064
 20
755.9425127465108
 30
0.0
 70
     8
  0
VERTEX
  5
372
330
296
100
AcDbEntity
  8
0
  6
Continuous
 62
     7
100
AcDbVertex
100
AcDb2dVertex
 10
662.9246970821691
 20
758.1503667035507
 30
0.0
 70
     8
  0
VERTEX
  5
373
330
296
100
AcDbEntity
  8
0
  6
Continuous
 62
     7
100
AcDbVertex
100
AcDb2dVertex
 10
665.9055183114294
 20
760.361681892579
 30
0.0
 70
     8
  0
VERTEX
  5
374
330
296
100
AcDbEntity
  8
0
  6
Continuous
 62
     7
100
AcDbVertex
100
AcDb2dVertex
 10
669.0277555904931
 20
762.5710192347566
 30
0.0
 70
     8
  0
VERTEX
  5
375
330
296
100
AcDbEntity
  8
0
  6
Continuous
 62
     7
100
AcDbVertex
100
AcDb2dVertex
 10
672.2896783033658
 20
764.7729396512453
 30
0.0
 70
     8
  0
VERTEX
  5
376
330
296
100
AcDbEntity
  8
0
  6
Continuous
 62
     7
100
AcDbVertex
100
AcDb2dVertex
 10
675.6895558340539
 20
766.9620040632066
 30
0.0
 70
     8
  0
VERTEX
  5
377
330
296
100
AcDbEntity
  8
0
  6
Continuous
 62
     7
100
AcDbVertex
100
AcDb2dVertex
 10
679.2256575665629
 20
769.1327733918016
 30
0.0
 70
     8
  0
VERTEX
  5
378
330
296
100
AcDbEntity
  8
0
  6
Continuous
 62
     7
100
AcDbVertex
100
AcDb2dVertex
 10
682.8962528848987
 20
771.2798085581918
 30
0.0
 70
     8
  0
VERTEX
  5
379
330
296
100
AcDbEntity
  8
0
  6
Continuous
 62
     7
100
AcDbVertex
100
AcDb2dVertex
 10
686.6996111730674
 20
773.3976704835388
 30
0.0
 70
     8
  0
VERTEX
  5
37A
330
296
100
AcDbEntity
  8
0
  6
Continuous
 62
     7
100
AcDbVertex
100
AcDb2dVertex
 10
690.6340018150748
 20
775.4809200890037
 30
0.0
 70
     8
  0
VERTEX
  5
37B
330
296
100
AcDbEntity
  8
0
  6
Continuous
 62
     7
100
AcDbVertex
100
AcDb2dVertex
 10
694.6976941949271
 20
777.5241182957483
 30
0.0
 70
     8
  0
VERTEX
  5
37C
330
296
100
AcDbEntity
  8
0
  6
Continuous
 62
     7
100
AcDbVertex
100
AcDb2dVertex
 10
698.8889576966296
 20
779.5218260249335
 30
0.0
 70
     8
  0
VERTEX
  5
37D
330
296
100
AcDbEntity
  8
0
  6
Continuous
 62
     7
100
AcDbVertex
100
AcDb2dVertex
 10
703.2060617041886
 20
781.4686041977212
 30
0.0
 70
     8
  0
VERTEX
  5
37E
330
296
100
AcDbEntity
  8
0
  6
Continuous
 62
     7
100
AcDbVertex
100
AcDb2dVertex
 10
707.6472756016102
 20
783.3590137352726
 30
0.0
 70
     8
  0
VERTEX
  5
37F
330
296
100
AcDbEntity
  8
0
  6
Continuous
 62
     7
100
AcDbVertex
100
AcDb2dVertex
 10
712.2108687728997
 20
785.1876155587491
 30
0.0
 70
     8
  0
VERTEX
  5
380
330
296
100
AcDbEntity
  8
0
  6
Continuous
 62
     7
100
AcDbVertex
100
AcDb2dVertex
 10
716.8951106020636
 20
786.9489705893121
 30
0.0
 70
     8
  0
VERTEX
  5
381
330
296
100
AcDbEntity
  8
0
  6
Continuous
 62
     7
100
AcDbVertex
100
AcDb2dVertex
 10
721.6982704731074
 20
788.6376397481231
 30
0.0
 70
     8
  0
VERTEX
  5
382
330
296
100
AcDbEntity
  8
0
  6
Continuous
 62
     7
100
AcDbVertex
100
AcDb2dVertex
 10
726.6186177700374
 20
790.2481839563435
 30
0.0
 70
     8
  0
VERTEX
  5
383
330
296
100
AcDbEntity
  8
0
  6
Continuous
 62
     7
100
AcDbVertex
100
AcDb2dVertex
 10
731.6544218768591
 20
791.7751641351347
 30
0.0
 70
     8
  0
VERTEX
  5
384
330
296
100
AcDbEntity
  8
0
  6
Continuous
 62
     7
100
AcDbVertex
100
AcDb2dVertex
 10
736.7995844324505
 20
793.2034167919767
 30
0.0
 70
     8
  0
VERTEX
  5
385
330
296
100
AcDbEntity
  8
0
  6
Continuous
 62
     7
100
AcDbVertex
100
AcDb2dVertex
 10
742.0305360951779
 20
794.4788807796258
 30
0.0
 70
     8
  0
VERTEX
  5
386
330
296
100
AcDbEntity
  8
0
  6
Continuous
 62
     7
100
AcDbVertex
100
AcDb2dVertex
 10
747.3193397782795
 20
795.5377705371566
 30
0.0
 70
     8
  0
VERTEX
  5
387
330
296
100
AcDbEntity
  8
0
  6
Continuous
 62
     7
100
AcDbVertex
100
AcDb2dVertex
 10
752.6380583949933
 20
796.3163005036437
 30
0.0
 70
     8
  0
VERTEX
  5
388
330
296
100
AcDbEntity
  8
0
  6
Continuous
 62
     7
100
AcDbVertex
100
AcDb2dVertex
 10
757.9587548585575
 20
796.7506851181619
 30
0.0
 70
     8
  0
VERTEX
  5
389
330
296
100
AcDbEntity
  8
0
  6
Continuous
 62
     7
100
AcDbVertex
100
AcDb2dVertex
 10
763.2534920822102
 20
796.7771388197859
 30
0.0
 70
     8
  0
VERTEX
  5
38A
330
296
100
AcDbEntity
  8
0
  6
Continuous
 62
     7
100
AcDbVertex
100
AcDb2dVertex
 10
768.4943329791897
 20
796.3318760475905
 30
0.0
 70
     8
  0
VERTEX
  5
38B
330
296
100
AcDbEntity
  8
0
  6
Continuous
 62
     7
100
AcDbVertex
100
AcDb2dVertex
 10
773.6533404627339
 20
795.3511112406503
 30
0.0
 70
     8
  0
VERTEX
  5
38C
330
296
100
AcDbEntity
  8
0
  6
Continuous
 62
     7
100
AcDbVertex
100
AcDb2dVertex
 10
778.7025774460814
 20
793.7710588380403
 30
0.0
 70
     8
  0
VERTEX
  5
38D
330
296
100
AcDbEntity
  8
0
  6
Continuous
 62
     7
100
AcDbVertex
100
AcDb2dVertex
 10
783.6141068424698
 20
791.527933278835
 30
0.0
 70
     8
  0
VERTEX
  5
38E
330
296
100
AcDbEntity
  8
0
  6
Continuous
 62
     7
100
AcDbVertex
100
AcDb2dVertex
 10
788.3599915651378
 20
788.5579490021091
 30
0.0
 70
     8
  0
VERTEX
  5
38F
330
296
100
AcDbEntity
  8
0
  6
Continuous
 62
     7
100
AcDbVertex
100
AcDb2dVertex
 10
792.9122945273231
 20
784.7973204469375
 30
0.0
 70
     8
  0
VERTEX
  5
390
330
296
100
AcDbEntity
  8
0
  6
Continuous
 62
     7
100
AcDbVertex
100
AcDb2dVertex
 10
797.2430786422641
 20
780.1822620523949
 30
0.0
 70
     8
  0
VERTEX
  5
391
330
296
100
AcDbEntity
  8
0
  6
Continuous
 62
     7
100
AcDbVertex
100
AcDb2dVertex
 10
801.3244068231988
 20
774.6489882575557
 30
0.0
 70
     8
  0
VERTEX
  5
392
330
296
100
AcDbEntity
  8
0
  6
Continuous
 62
     7
100
AcDbVertex
100
AcDb2dVertex
 10
805.1283419833657
 20
768.1337135014951
 30
0.0
 70
     8
  0
VERTEX
  5
393
330
296
100
AcDbEntity
  8
0
  6
Continuous
 62
     7
100
AcDbVertex
100
AcDb2dVertex
 10
808.6269470360024
 20
760.5726522232876
 30
0.0
 70
     8
  0
VERTEX
  5
394
330
296
100
AcDbEntity
  8
0
  6
Continuous
 62
     7
100
AcDbVertex
100
AcDb2dVertex
 10
811.7922848943476
 20
751.902018862008
 30
0.0
 70
     8
  0
VERTEX
  5
395
330
296
100
AcDbEntity
  8
0
  6
Continuous
 62
     7
100
AcDbVertex
100
AcDb2dVertex
 10
814.5964184716393
 20
742.0580278567309
 30
0.0
 70
     8
  0
VERTEX
  5
396
330
296
100
AcDbEntity
  8
0
  6
Continuous
 62
     7
100
AcDbVertex
100
AcDb2dVertex
 10
817.0114106811155
 20
730.9768936465312
 30
0.0
 70
     8
  0
VERTEX
  5
397
330
296
100
AcDbEntity
  8
0
  6
Continuous
 62
     7
100
AcDbVertex
100
AcDb2dVertex
 10
819.0093244360144
 20
718.5948306704835
 30
0.0
 70
     8
  0
SEQEND
  5
297
330
296
100
AcDbEntity
  8
0
  6
Continuous
 62
     7
370
     0
  0
TEXT
  5
39A
102
{ACAD_XDICTIONARY
360
398
102
}
330
1F
100
AcDbEntity
  8
0
  6
Continuous
 62
     7
100
AcDbText
 10
969.325685066108
 20
689.4755678702745
 30
0.0
 40
43.65868866443634
  1
接続ホース
  7
_TCW_TXTSTY_1
 11
969.325685066108
 21
733.1342565347109
 31
0.0
100
AcDbText
 73
     3
  0
LEADER
  5
39D
102
{ACAD_XDICTIONARY
360
39B
102
}
330
1F
100
AcDbEntity
  8
0
  6
Continuous
 62
     7
370
     0
100
AcDbLeader
  3
標準寸法
 76
     4
 10
644.9588016011692
 20
504.9873708277189
 30
0.0
 10
886.2561173494771
 20
694.860668465732
 30
0.0
 10
1293.692568531047
 20
694.860668465732
 30
0.0
 10
1308.692568531047
 20
694.860668465732
 30
0.0
  0
TEXT
  5
3A0
102
{ACAD_XDICTIONARY
360
39E
102
}
330
1F
100
AcDbEntity
  8
0
  6
Continuous
 62
     7
100
AcDbText
 10
200.9321837720258
 20
583.6607613921872
 30
0.0
 40
43.65868866443634
  1
雨水くん
  7
_TCW_TXTSTY_1
 11
200.9321837720258
 21
627.3194500566235
 31
0.0
100
AcDbText
 73
     3
  0
VIEWPORT
  5
3A1
330
1B
100
AcDbEntity
 67
     1
  8
0
100
AcDbViewport
 10
513.8892587574855
 20
730.2364954999999
 30
0.0
 40
4556.645222477462
 41
3221.870359327498
 68
     1
 69
     1
 12
513.8892587574855
 22
730.2364954999999
 13
0.0
 23
0.0
 14
5.0
 24
5.0
 15
5.0
 25
5.0
 16
0.0
 26
0.0
 36
1.0
 17
0.0
 27
0.0
 37
0.0
 42
50.0
 43
0.0
 44
0.0
 45
3221.870359327498
 50
0.0
 51
0.0
 72
  1000
 90
    32800
  1

281
     0
 71
     1
 74
     0
110
0.0
120
0.0
130
0.0
111
1.0
121
0.0
131
0.0
112
0.0
122
1.0
132
0.0
 79
     0
146
0.0
170
     0
 61
     5
292
     1
282
     1
141
0.0
142
0.0
 63
   256
  0
ENDSEC
  0
SECTION
  2
OBJECTS
  0
DICTIONARY
  5
C
330
0
100
AcDbDictionary
281
     1
  3
ACAD_GROUP
350
D
  3
ACAD_LAYOUT
350
1A
  3
ACAD_MLEADERSTYLE
350
3A2
  3
ACAD_MLINESTYLE
350
17
  3
ACAD_PLOTSETTINGS
350
19
  3
ACAD_PLOTSTYLENAME
350
E
  3
ACAD_SCALELIST
350
3B
  3
ACAD_TABLESTYLE
350
77
  3
ACAD_VISUALSTYLE
350
2A
  0
DICTIONARY
  5
79
330
7B
100
AcDbDictionary
280
     1
281
     1
  3
TC_OPTIONAL_DATA
360
7A
  0
DICTIONARY
  5
7C
330
7E
100
AcDbDictionary
280
     1
281
     1
  3
TC_OPTIONAL_DATA
360
7D
  0
DICTIONARY
  5
7F
330
81
100
AcDbDictionary
280
     1
281
     1
  3
TC_OPTIONAL_DATA
360
80
  0
DICTIONARY
  5
82
330
84
100
AcDbDictionary
280
     1
281
     1
  3
TC_OPTIONAL_DATA
360
83
  0
DICTIONARY
  5
85
330
87
100
AcDbDictionary
280
     1
281
     1
  3
TC_OPTIONAL_DATA
360
86
  0
DICTIONARY
  5
88
330
8A
100
AcDbDictionary
280
     1
281
     1
  3
TC_OPTIONAL_DATA
360
89
  0
DICTIONARY
  5
8B
330
8D
100
AcDbDictionary
280
     1
281
     1
  3
TC_OPTIONAL_DATA
360
8C
  0
DICTIONARY
  5
8E
330
90
100
AcDbDictionary
280
     1
281
     1
  3
TC_OPTIONAL_DATA
360
8F
  0
DICTIONARY
  5
91
330
93
100
AcDbDictionary
280
     1
281
     1
  3
TC_OPTIONAL_DATA
360
92
  0
DICTIONARY
  5
94
330
96
100
AcDbDictionary
280
     1
281
     1
  3
TC_OPTIONAL_DATA
360
95
  0
DICTIONARY
  5
97
330
99
100
AcDbDictionary
280
     1
281
     1
  3
TC_OPTIONAL_DATA
360
98
  0
DICTIONARY
  5
9A
330
9C
100
AcDbDictionary
280
     1
281
     1
  3
TC_OPTIONAL_DATA
360
9B
  0
DICTIONARY
  5
9D
330
9F
100
AcDbDictionary
280
     1
281
     1
  3
TC_OPTIONAL_DATA
360
9E
  0
DICTIONARY
  5
A0
330
A2
100
AcDbDictionary
280
     1
281
     1
  3
TC_OPTIONAL_DATA
360
A1
  0
DICTIONARY
  5
A3
330
A5
100
AcDbDictionary
280
     1
281
     1
  3
TC_OPTIONAL_DATA
360
A4
  0
DICTIONARY
  5
A6
330
A8
100
AcDbDictionary
280
     1
281
     1
  3
TC_OPTIONAL_DATA
360
A7
  0
DICTIONARY
  5
A9
330
AB
100
AcDbDictionary
280
     1
281
     1
  3
TC_OPTIONAL_DATA
360
AA
  0
DICTIONARY
  5
AC
330
AE
100
AcDbDictionary
280
     1
281
     1
  3
TC_OPTIONAL_DATA
360
AD
  0
DICTIONARY
  5
AF
330
B1
100
AcDbDictionary
280
     1
281
     1
  3
TC_OPTIONAL_DATA
360
B0
  0
DICTIONARY
  5
B2
330
B4
100
AcDbDictionary
280
     1
281
     1
  3
TC_OPTIONAL_DATA
360
B3
  0
DICTIONARY
  5
B5
330
B7
100
AcDbDictionary
280
     1
281
     1
  3
TC_OPTIONAL_DATA
360
B6
  0
DICTIONARY
  5
B8
330
BA
100
AcDbDictionary
280
     1
281
     1
  3
TC_OPTIONAL_DATA
360
B9
  0
DICTIONARY
  5
BB
330
BD
100
AcDbDictionary
280
     1
281
     1
  3
TC_OPTIONAL_DATA
360
BC
  0
DICTIONARY
  5
F8
330
FA
100
AcDbDictionary
280
     1
281
     1
  3
TC_OPTIONAL_DATA
360
F9
  0
DICTIONARY
  5
FC
330
FE
100
AcDbDictionary
280
     1
281
     1
  3
TC_OPTIONAL_DATA
360
FD
  0
DICTIONARY
  5
100
330
102
100
AcDbDictionary
280
     1
281
     1
  3
TC_OPTIONAL_DATA
360
101
  0
DICTIONARY
  5
104
330
106
100
AcDbDictionary
280
     1
281
     1
  3
TC_OPTIONAL_DATA
360
105
  0
DICTIONARY
  5
108
330
10A
100
AcDbDictionary
280
     1
281
     1
  3
TC_OPTIONAL_DATA
360
109
  0
DICTIONARY
  5
10B
330
10D
100
AcDbDictionary
280
     1
281
     1
  3
TC_OPTIONAL_DATA
360
10C
  0
DICTIONARY
  5
10F
330
111
100
AcDbDictionary
280
     1
281
     1
  3
TC_OPTIONAL_DATA
360
110
  0
DICTIONARY
  5
114
330
116
100
AcDbDictionary
280
     1
281
     1
  3
TC_OPTIONAL_DATA
360
115
  0
DICTIONARY
  5
117
330
119
100
AcDbDictionary
280
     1
281
     1
  3
TC_OPTIONAL_DATA
360
118
  0
DICTIONARY
  5
11A
330
11C
100
AcDbDictionary
280
     1
281
     1
  3
TC_OPTIONAL_DATA
360
11B
  0
DICTIONARY
  5
11D
330
11F
100
AcDbDictionary
280
     1
281
     1
  3
TC_OPTIONAL_DATA
360
11E
  0
DICTIONARY
  5
120
330
122
100
AcDbDictionary
280
     1
281
     1
  3
TC_OPTIONAL_DATA
360
121
  0
DICTIONARY
  5
123
330
125
100
AcDbDictionary
280
     1
281
     1
  3
TC_OPTIONAL_DATA
360
124
  0
DICTIONARY
  5
126
330
128
100
AcDbDictionary
280
     1
281
     1
  3
TC_OPTIONAL_DATA
360
127
  0
DICTIONARY
  5
129
330
12B
100
AcDbDictionary
280
     1
281
     1
  3
TC_OPTIONAL_DATA
360
12A
  0
DICTIONARY
  5
12C
330
12E
100
AcDbDictionary
280
     1
281
     1
  3
TC_OPTIONAL_DATA
360
12D
  0
DICTIONARY
  5
15E
330
160
100
AcDbDictionary
280
     1
281
     1
  3
TC_OPTIONAL_DATA
360
15F
  0
DICTIONARY
  5
179
330
17B
100
AcDbDictionary
280
     1
281
     1
  3
TC_OPTIONAL_DATA
360
17A
  0
DICTIONARY
  5
1D5
330
1D7
100
AcDbDictionary
280
     1
281
     1
  3
TC_OPTIONAL_DATA
360
1D6
  0
DICTIONARY
  5
1D8
330
1DA
100
AcDbDictionary
280
     1
281
     1
  3
TC_OPTIONAL_DATA
360
1D9
  0
DICTIONARY
  5
1F4
330
1F6
100
AcDbDictionary
280
     1
281
     1
  3
TC_OPTIONAL_DATA
360
1F5
  0
DICTIONARY
  5
211
330
213
100
AcDbDictionary
280
     1
281
     1
  3
TC_OPTIONAL_DATA
360
212
  0
DICTIONARY
  5
214
330
216
100
AcDbDictionary
280
     1
281
     1
  3
TC_OPTIONAL_DATA
360
215
  0
DICTIONARY
  5
217
330
219
100
AcDbDictionary
280
     1
281
     1
  3
TC_OPTIONAL_DATA
360
218
  0
DICTIONARY
  5
21A
330
21C
100
AcDbDictionary
280
     1
281
     1
  3
TC_OPTIONAL_DATA
360
21B
  0
DICTIONARY
  5
21D
330
21F
100
AcDbDictionary
280
     1
281
     1
  3
TC_OPTIONAL_DATA
360
21E
  0
DICTIONARY
  5
220
330
222
100
AcDbDictionary
280
     1
281
     1
  3
TC_OPTIONAL_DATA
360
221
  0
DICTIONARY
  5
291
330
293
100
AcDbDictionary
280
     1
281
     1
  3
TC_OPTIONAL_DATA
360
292
  0
DICTIONARY
  5
294
330
296
100
AcDbDictionary
280
     1
281
     1
  3
TC_OPTIONAL_DATA
360
295
  0
DICTIONARY
  5
398
330
39A
100
AcDbDictionary
280
     1
281
     1
  3
TC_OPTIONAL_DATA
360
399
  0
DICTIONARY
  5
39B
330
39D
100
AcDbDictionary
280
     1
281
     1
  3
TC_OPTIONAL_DATA
360
39C
  0
DICTIONARY
  5
39E
330
3A0
100
AcDbDictionary
280
     1
281
     1
  3
TC_OPTIONAL_DATA
360
39F
  0
DICTIONARY
  5
D
102
{ACAD_REACTORS
330
C
102
}
330
C
100
AcDbDictionary
281
     1
  0
DICTIONARY
  5
1A
102
{ACAD_REACTORS
330
C
102
}
330
C
100
AcDbDictionary
281
     1
  3
Layout1
350
1E
  3
Model
350
22
  0
DICTIONARY
  5
3A2
102
{ACAD_REACTORS
330
C
102
}
330
C
100
AcDbDictionary
281
     1
  0
DICTIONARY
  5
17
102
{ACAD_REACTORS
330
C
102
}
330
C
100
AcDbDictionary
281
     1
  3
Standard
350
18
  0
DICTIONARY
  5
19
102
{ACAD_REACTORS
330
C
102
}
330
C
100
AcDbDictionary
281
     1
  0
ACDBDICTIONARYWDFLT
  5
E
102
{ACAD_REACTORS
330
C
102
}
330
C
100
AcDbDictionary
281
     1
  3
Normal
350
F
100
AcDbDictionaryWithDefault
340
F
  0
DICTIONARY
  5
3B
102
{ACAD_REACTORS
330
C
102
}
330
C
100
AcDbDictionary
281
     1
  3
A0
350
3C
  3
A1
350
3D
  3
A2
350
3E
  3
A3
350
3F
  3
A4
350
40
  3
A5
350
41
  3
A6
350
42
  3
A7
350
43
  3
A8
350
44
  3
A9
350
45
  3
B0
350
46
  3
B1
350
47
  3
B2
350
48
  3
B3
350
49
  3
B4
350
4A
  3
B5
350
4B
  3
B6
350
4C
  3
B7
350
4D
  3
B8
350
4E
  3
B9
350
4F
  3
C0
350
50
  3
C1
350
51
  3
C2
350
52
  3
C3
350
53
  3
C4
350
54
  3
C5
350
55
  3
C6
350
56
  3
C7
350
57
  3
C8
350
58
  3
C9
350
59
  3
D0
350
5A
  3
D1
350
5B
  3
D2
350
5C
  0
DICTIONARY
  5
77
102
{ACAD_REACTORS
330
C
102
}
330
C
100
AcDbDictionary
281
     1
  3
標準
350
78
  0
DICTIONARY
  5
2A
102
{ACAD_REACTORS
330
C
102
}
330
C
100
AcDbDictionary
281
     1
  3
2dWireframe
350
2F
  3
3D Hidden
350
31
  3
3dWireframe
350
30
  3
Basic
350
32
  3
Brighten
350
36
  3
ColorChange
350
3A
  3
Conceptual
350
34
  3
Dim
350
35
  3
Facepattern
350
39
  3
Flat
350
2B
  3
FlatWithEdges
350
2C
  3
Gouraud
350
2D
  3
GouraudWithEdges
350
2E
  3
Linepattern
350
38
  3
Realistic
350
33
  3
Thicken
350
37
  0
TCOPTIONALDATA
  5
7A
102
{ACAD_REACTORS
330
79
102
}
330
79
100
TcOptionalData
 70
     1
 70
    32
 40
-3.0
  0
TCOPTIONALDATA
  5
7D
102
{ACAD_REACTORS
330
7C
102
}
330
7C
100
TcOptionalData
 70
     1
 70
    32
 40
-3.0
  0
TCOPTIONALDATA
  5
80
102
{ACAD_REACTORS
330
7F
102
}
330
7F
100
TcOptionalData
 70
     1
 70
    32
 40
-3.0
  0
TCOPTIONALDATA
  5
83
102
{ACAD_REACTORS
330
82
102
}
330
82
100
TcOptionalData
 70
     1
 70
    32
 40
-3.0
  0
TCOPTIONALDATA
  5
86
102
{ACAD_REACTORS
330
85
102
}
330
85
100
TcOptionalData
 70
     1
 70
    32
 40
-3.0
  0
TCOPTIONALDATA
  5
89
102
{ACAD_REACTORS
330
88
102
}
330
88
100
TcOptionalData
 70
     1
 70
    32
 40
-3.0
  0
TCOPTIONALDATA
  5
8C
102
{ACAD_REACTORS
330
8B
102
}
330
8B
100
TcOptionalData
 70
     1
 70
    32
 40
-3.0
  0
TCOPTIONALDATA
  5
8F
102
{ACAD_REACTORS
330
8E
102
}
330
8E
100
TcOptionalData
 70
     1
 70
    32
 40
-3.0
  0
TCOPTIONALDATA
  5
92
102
{ACAD_REACTORS
330
91
102
}
330
91
100
TcOptionalData
 70
     1
 70
    32
 40
-3.0
  0
TCOPTIONALDATA
  5
95
102
{ACAD_REACTORS
330
94
102
}
330
94
100
TcOptionalData
 70
     1
 70
    32
 40
-3.0
  0
TCOPTIONALDATA
  5
98
102
{ACAD_REACTORS
330
97
102
}
330
97
100
TcOptionalData
 70
     1
 70
    32
 40
-3.0
  0
TCOPTIONALDATA
  5
9B
102
{ACAD_REACTORS
330
9A
102
}
330
9A
100
TcOptionalData
 70
     1
 70
    32
 40
-3.0
  0
TCOPTIONALDATA
  5
9E
102
{ACAD_REACTORS
330
9D
102
}
330
9D
100
TcOptionalData
 70
     1
 70
    32
 40
-3.0
  0
TCOPTIONALDATA
  5
A1
102
{ACAD_REACTORS
330
A0
102
}
330
A0
100
TcOptionalData
 70
     1
 70
    32
 40
-3.0
  0
TCOPTIONALDATA
  5
A4
102
{ACAD_REACTORS
330
A3
102
}
330
A3
100
TcOptionalData
 70
     1
 70
    32
 40
-3.0
  0
TCOPTIONALDATA
  5
A7
102
{ACAD_REACTORS
330
A6
102
}
330
A6
100
TcOptionalData
 70
     1
 70
    32
 40
-3.0
  0
TCOPTIONALDATA
  5
AA
102
{ACAD_REACTORS
330
A9
102
}
330
A9
100
TcOptionalData
 70
     1
 70
    32
 40
-3.0
  0
TCOPTIONALDATA
  5
AD
102
{ACAD_REACTORS
330
AC
102
}
330
AC
100
TcOptionalData
 70
     1
 70
    32
 40
-3.0
  0
TCOPTIONALDATA
  5
B0
102
{ACAD_REACTORS
330
AF
102
}
330
AF
100
TcOptionalData
 70
     1
 70
    32
 40
-3.0
  0
TCOPTIONALDATA
  5
B3
102
{ACAD_REACTORS
330
B2
102
}
330
B2
100
TcOptionalData
 70
     1
 70
    32
 40
-3.0
  0
TCOPTIONALDATA
  5
B6
102
{ACAD_REACTORS
330
B5
102
}
330
B5
100
TcOptionalData
 70
     1
 70
    32
 40
-3.0
  0
TCOPTIONALDATA
  5
B9
102
{ACAD_REACTORS
330
B8
102
}
330
B8
100
TcOptionalData
 70
     1
 70
    32
 40
-3.0
  0
TCOPTIONALDATA
  5
BC
102
{ACAD_REACTORS
330
BB
102
}
330
BB
100
TcOptionalData
 70
     1
 70
    32
 40
-3.0
  0
TCOPTIONALDATA
  5
F9
102
{ACAD_REACTORS
330
F8
102
}
330
F8
100
TcOptionalData
 70
     1
 70
     2
 10
802.093233
 20
-554.047904
 30
0.0
  0
TCOPTIONALDATA
  5
FD
102
{ACAD_REACTORS
330
FC
102
}
330
FC
100
TcOptionalData
 70
     1
 70
     2
 10
1138.575478
 20
-376.31069
 30
0.0
  0
TCOPTIONALDATA
  5
101
102
{ACAD_REACTORS
330
100
102
}
330
100
100
TcOptionalData
 70
     1
 70
     2
 10
1215.232764
 20
-446.578893
 30
0.0
  0
TCOPTIONALDATA
  5
105
102
{ACAD_REACTORS
330
104
102
}
330
104
100
TcOptionalData
 70
     1
 70
     2
 10
-330.998739
 20
-130.172524
 30
0.0
  0
TCOPTIONALDATA
  5
109
102
{ACAD_REACTORS
330
108
102
}
330
108
100
TcOptionalData
 70
     1
 70
     2
 10
954.317921
 20
215.765239
 30
0.0
  0
TCOPTIONALDATA
  5
10C
102
{ACAD_REACTORS
330
10B
102
}
330
10B
100
TcOptionalData
 70
     1
 70
    32
 40
-3.0
  0
TCOPTIONALDATA
  5
110
102
{ACAD_REACTORS
330
10F
102
}
330
10F
100
TcOptionalData
 70
     1
 70
     2
 10
-773.074924
 20
783.83298
 30
0.0
  0
TCOPTIONALDATA
  5
115
102
{ACAD_REACTORS
330
114
102
}
330
114
100
TcOptionalData
 70
     1
 70
    32
 40
-3.0
  0
TCOPTIONALDATA
  5
118
102
{ACAD_REACTORS
330
117
102
}
330
117
100
TcOptionalData
 70
     1
 70
    32
 40
-3.0
  0
TCOPTIONALDATA
  5
11B
102
{ACAD_REACTORS
330
11A
102
}
330
11A
100
TcOptionalData
 70
     1
 70
    32
 40
-3.0
  0
TCOPTIONALDATA
  5
11E
102
{ACAD_REACTORS
330
11D
102
}
330
11D
100
TcOptionalData
 70
     1
 70
    32
 40
-3.0
  0
TCOPTIONALDATA
  5
121
102
{ACAD_REACTORS
330
120
102
}
330
120
100
TcOptionalData
 70
     1
 70
    32
 40
-3.0
  0
TCOPTIONALDATA
  5
124
102
{ACAD_REACTORS
330
123
102
}
330
123
100
TcOptionalData
 70
     1
 70
   128
 90
        1
  1
#$AUX@_ToolInfo Properties
 70
     8
  1
挿入^J線^J矩形@線 矩形
  0
TCOPTIONALDATA
  5
127
102
{ACAD_REACTORS
330
126
102
}
330
126
100
TcOptionalData
 70
     1
 70
   128
 90
        1
  1
#$AUX@_ToolInfo Properties
 70
     8
  1
挿入^J線^J矩形@線 矩形
  0
TCOPTIONALDATA
  5
12A
102
{ACAD_REACTORS
330
129
102
}
330
129
100
TcOptionalData
 70
     1
 70
   128
 90
        1
  1
#$AUX@_ToolInfo Properties
 70
     8
  1
挿入^J線^J矩形@線 矩形
  0
TCOPTIONALDATA
  5
12D
102
{ACAD_REACTORS
330
12C
102
}
330
12C
100
TcOptionalData
 70
     1
 70
   128
 90
        1
  1
#$AUX@_ToolInfo Properties
 70
     8
  1
挿入^J曲線^Jスプライン@曲線 スプライン
  0
TCOPTIONALDATA
  5
15F
102
{ACAD_REACTORS
330
15E
102
}
330
15E
100
TcOptionalData
 70
     1
 70
   128
 90
        1
  1
#$AUX@_ToolInfo Properties
 70
     8
  1
挿入^J曲線^Jスプライン@曲線 スプライン
  0
TCOPTIONALDATA
  5
17A
102
{ACAD_REACTORS
330
179
102
}
330
179
100
TcOptionalData
 70
     1
 70
   128
 90
        1
  1
#$AUX@_ToolInfo Properties
 70
     8
  1
挿入^J曲線^Jスプライン@曲線 スプライン
  0
TCOPTIONALDATA
  5
1D6
102
{ACAD_REACTORS
330
1D5
102
}
330
1D5
100
TcOptionalData
 70
     1
 70
   128
 90
        1
  1
#$AUX@_ToolInfo Properties
 70
     8
  1
挿入^J円^J中心･半径指定@円 中心･半径指定
  0
TCOPTIONALDATA
  5
1D9
102
{ACAD_REACTORS
330
1D8
102
}
330
1D8
100
TcOptionalData
 70
     1
 70
   128
 90
        1
  1
#$AUX@_ToolInfo Properties
 70
     8
  1
挿入^J曲線^Jスプライン@曲線 スプライン
  0
TCOPTIONALDATA
  5
1F5
102
{ACAD_REACTORS
330
1F4
102
}
330
1F4
100
TcOptionalData
 70
     1
 70
   128
 90
        1
  1
#$AUX@_ToolInfo Properties
 70
     8
  1
挿入^J曲線^Jスプライン@曲線 スプライン
  0
TCOPTIONALDATA
  5
212
102
{ACAD_REACTORS
330
211
102
}
330
211
100
TcOptionalData
 70
     1
 70
   128
 90
        1
  1
#$AUX@_ToolInfo Properties
 70
     8
  1
挿入^J寸法線^Jリーダー@寸法線 リーダー
  0
TCOPTIONALDATA
  5
215
102
{ACAD_REACTORS
330
214
102
}
330
214
100
TcOptionalData
 70
     1
 70
     3
  1
取水継手（フィルターなし）^M^Jφ５５用、φ６０用あり。事前にご確認ください。
 10
-592.2094730051326
 20
918.9904470899031
 30
0.0
  0
TCOPTIONALDATA
  5
218
102
{ACAD_REACTORS
330
217
102
}
330
217
100
TcOptionalData
 70
     1
 70
    32
 40
-3.0
  0
TCOPTIONALDATA
  5
21B
102
{ACAD_REACTORS
330
21A
102
}
330
21A
100
TcOptionalData
 70
     1
 70
   128
 90
        1
  1
#$AUX@_ToolInfo Properties
 70
     8
  1
挿入^J寸法線^Jリーダー@寸法線 リーダー
  0
TCOPTIONALDATA
  5
21E
102
{ACAD_REACTORS
330
21D
102
}
330
21D
100
TcOptionalData
 70
     1
 70
   144
 90
        1
  1
#$AUX@_ToolInfo Properties
 70
     8
  1
挿入^Jテキスト@テキスト
  1
ＭＳ ゴシック
 70
     0
  0
TCOPTIONALDATA
  5
221
102
{ACAD_REACTORS
330
220
102
}
330
220
100
TcOptionalData
 70
     1
 70
   128
 90
        1
  1
#$AUX@_ToolInfo Properties
 70
     8
  1
CMD_SPLINE@
  0
TCOPTIONALDATA
  5
292
102
{ACAD_REACTORS
330
291
102
}
330
291
100
TcOptionalData
 70
     1
 70
   128
 90
        1
  1
#$AUX@_ToolInfo Properties
 70
     8
  1
CMD_RECTANGLE@
  0
TCOPTIONALDATA
  5
295
102
{ACAD_REACTORS
330
294
102
}
330
294
100
TcOptionalData
 70
     1
 70
   128
 90
        1
  1
#$AUX@_ToolInfo Properties
 70
     8
  1
CMD_SPLINE@
  0
TCOPTIONALDATA
  5
399
102
{ACAD_REACTORS
330
398
102
}
330
398
100
TcOptionalData
 70
     1
 70
   144
 90
        1
  1
#$AUX@_ToolInfo Properties
 70
     8
  1
CMD_TEXT@
  1
ＭＳ ゴシック
 70
     0
  0
TCOPTIONALDATA
  5
39C
102
{ACAD_REACTORS
330
39B
102
}
330
39B
100
TcOptionalData
 70
     1
 70
   128
 90
        1
  1
#$AUX@_ToolInfo Properties
 70
     8
  1
CMD_STRINGDIM@
  0
TCOPTIONALDATA
  5
39F
102
{ACAD_REACTORS
330
39E
102
}
330
39E
100
TcOptionalData
 70
     1
 70
   144
 90
        1
  1
#$AUX@_ToolInfo Properties
 70
     8
  1
CMD_TEXT@
  1
ＭＳ ゴシック
 70
     0
  0
LAYOUT
  5
1E
102
{ACAD_REACTORS
330
1A
102
}
330
1A
100
AcDbPlotSettings
  1

  2
none_device
  4
Sun_Hi-Res_(1280.00_x_1600.00_Pixels)
  6

 40
0.0
 41
0.0
 42
0.0
 43
0.0
 44
1280.0
 45
1600.0
 46
16258.02679743142
 47
11496.74752104079
 48
0.0
 49
0.0
140
0.0
141
0.0
142
1.0
143
0.0447387401574803
 70
   672
 72
     2
 73
     0
 74
     5
  7

 75
    16
 76
     0
 77
     2
 78
   300
147
1.0
148
0.0
149
0.0
100
AcDbLayout
  1
Layout1
 70
     1
 71
     1
 10
-28.63636363636363
 20
-20.25
 11
448.6363636363636
 21
317.2499999999999
 12
0.0
 22
0.0
 32
0.0
 14
-28.63636363636363
 24
-20.25
 34
0.0
 15
448.6363636363636
 25
317.2499999999999
 35
0.0
146
0.0
 13
0.0
 23
0.0
 33
0.0
 16
1.0
 26
0.0
 36
0.0
 17
0.0
 27
1.0
 37
0.0
 76
     0
330
1B
331
3A1
  0
LAYOUT
  5
22
102
{ACAD_REACTORS
330
1A
102
}
330
1A
100
AcDbPlotSettings
  1

  2
none_device
  4
ISO_A4_(297.00_x_210.00_MM)
  6

 40
7.5
 41
20.0
 42
7.5
 43
20.0
 44
297.0
 45
210.0
 46
107.5049363306943
 47
37.40352615549121
 48
0.0
 49
0.0
140
0.0
141
0.0
142
1.0
143
15.34224015748032
 70
  1696
 72
     1
 73
     0
 74
     0
  7

 75
     0
 76
     0
 77
     2
 78
   300
147
0.0019353121805639
148
0.0
149
0.0
100
AcDbLayout
  1
Model
 70
     1
 71
     0
 10
-1764.433352481245
 20
-880.6986841637488
 11
2792.211869996217
 21
2341.171675163749
 12
0.0
 22
0.0
 32
0.0
 14
-1764.433352481246
 24
-775.127629
 34
0.0
 15
2792.211869996217
 25
2235.60062
 35
0.0
146
0.0
 13
0.0
 23
0.0
 33
0.0
 16
1.0
 26
0.0
 36
0.0
 17
0.0
 27
1.0
 37
0.0
 76
     0
330
1F
331
29
  0
MLINESTYLE
  5
18
102
{ACAD_REACTORS
330
17
102
}
330
17
100
AcDbMlineStyle
  2
Standard
 70
     0
  3

 62
   256
 51
90.0
 52
90.0
 71
     5
 49
0.5
 62
   256
  6
BYLAYER
 49
-0.5
 62
   256
  6
BYLAYER
 49
25.0
 62
     7
  6
BYLAYER
 49
0.0
 62
     7
  6
BYLAYER
 49
-25.0
 62
     7
  6
BYLAYER
  0
ACDBPLACEHOLDER
  5
F
102
{ACAD_REACTORS
330
E
102
}
330
E
  0
SCALE
  5
3C
102
{ACAD_REACTORS
330
3B
102
}
330
3B
100
AcDbScale
 70
     0
300
1:1
140
1.0
141
1.0
290
     1
  0
SCALE
  5
3D
102
{ACAD_REACTORS
330
3B
102
}
330
3B
100
AcDbScale
 70
     0
300
1:2
140
1.0
141
2.0
290
     0
  0
SCALE
  5
3E
102
{ACAD_REACTORS
330
3B
102
}
330
3B
100
AcDbScale
 70
     0
300
1:4
140
1.0
141
4.0
290
     0
  0
SCALE
  5
3F
102
{ACAD_REACTORS
330
3B
102
}
330
3B
100
AcDbScale
 70
     0
300
1:5
140
1.0
141
5.0
290
     0
  0
SCALE
  5
40
102
{ACAD_REACTORS
330
3B
102
}
330
3B
100
AcDbScale
 70
     0
300
1:8
140
1.0
141
8.0
290
     0
  0
SCALE
  5
41
102
{ACAD_REACTORS
330
3B
102
}
330
3B
100
AcDbScale
 70
     0
300
1:10
140
1.0
141
10.0
290
     0
  0
SCALE
  5
42
102
{ACAD_REACTORS
330
3B
102
}
330
3B
100
AcDbScale
 70
     0
300
1:16
140
1.0
141
16.0
290
     0
  0
SCALE
  5
43
102
{ACAD_REACTORS
330
3B
102
}
330
3B
100
AcDbScale
 70
     0
300
1:20
140
1.0
141
20.0
290
     0
  0
SCALE
  5
44
102
{ACAD_REACTORS
330
3B
102
}
330
3B
100
AcDbScale
 70
     0
300
1:30
140
1.0
141
30.0
290
     0
  0
SCALE
  5
45
102
{ACAD_REACTORS
330
3B
102
}
330
3B
100
AcDbScale
 70
     0
300
1:40
140
1.0
141
40.0
290
     0
  0
SCALE
  5
46
102
{ACAD_REACTORS
330
3B
102
}
330
3B
100
AcDbScale
 70
     0
300
1:50
140
1.0
141
50.0
290
     0
  0
SCALE
  5
47
102
{ACAD_REACTORS
330
3B
102
}
330
3B
100
AcDbScale
 70
     0
300
1:100
140
1.0
141
100.0
290
     0
  0
SCALE
  5
48
102
{ACAD_REACTORS
330
3B
102
}
330
3B
100
AcDbScale
 70
     0
300
2:1
140
2.0
141
1.0
290
     0
  0
SCALE
  5
49
102
{ACAD_REACTORS
330
3B
102
}
330
3B
100
AcDbScale
 70
     0
300
4:1
140
4.0
141
1.0
290
     0
  0
SCALE
  5
4A
102
{ACAD_REACTORS
330
3B
102
}
330
3B
100
AcDbScale
 70
     0
300
8:1
140
8.0
141
1.0
290
     0
  0
SCALE
  5
4B
102
{ACAD_REACTORS
330
3B
102
}
330
3B
100
AcDbScale
 70
     0
300
10:1
140
10.0
141
1.0
290
     0
  0
SCALE
  5
4C
102
{ACAD_REACTORS
330
3B
102
}
330
3B
100
AcDbScale
 70
     0
300
100:1
140
100.0
141
1.0
290
     0
  0
SCALE
  5
4D
102
{ACAD_REACTORS
330
3B
102
}
330
3B
100
AcDbScale
 70
     0
300
1/128" = 1'-0"
140
0.0078125
141
12.0
290
     0
  0
SCALE
  5
4E
102
{ACAD_REACTORS
330
3B
102
}
330
3B
100
AcDbScale
 70
     0
300
1/64" = 1'-0"
140
0.015625
141
12.0
290
     0
  0
SCALE
  5
4F
102
{ACAD_REACTORS
330
3B
102
}
330
3B
100
AcDbScale
 70
     0
300
1/32" = 1'-0"
140
0.03125
141
12.0
290
     0
  0
SCALE
  5
50
102
{ACAD_REACTORS
330
3B
102
}
330
3B
100
AcDbScale
 70
     0
300
1/16" = 1'-0"
140
0.0625
141
12.0
290
     0
  0
SCALE
  5
51
102
{ACAD_REACTORS
330
3B
102
}
330
3B
100
AcDbScale
 70
     0
300
3/32" = 1'-0"
140
0.09375
141
12.0
290
     0
  0
SCALE
  5
52
102
{ACAD_REACTORS
330
3B
102
}
330
3B
100
AcDbScale
 70
     0
300
1/8" = 1'-0"
140
0.125
141
12.0
290
     0
  0
SCALE
  5
53
102
{ACAD_REACTORS
330
3B
102
}
330
3B
100
AcDbScale
 70
     0
300
3/16" = 1'-0"
140
0.1875
141
12.0
290
     0
  0
SCALE
  5
54
102
{ACAD_REACTORS
330
3B
102
}
330
3B
100
AcDbScale
 70
     0
300
1/4" = 1'-0"
140
0.25
141
12.0
290
     0
  0
SCALE
  5
55
102
{ACAD_REACTORS
330
3B
102
}
330
3B
100
AcDbScale
 70
     0
300
3/8" = 1'-0"
140
0.375
141
12.0
290
     0
  0
SCALE
  5
56
102
{ACAD_REACTORS
330
3B
102
}
330
3B
100
AcDbScale
 70
     0
300
1/2" = 1'-0"
140
0.5
141
12.0
290
     0
  0
SCALE
  5
57
102
{ACAD_REACTORS
330
3B
102
}
330
3B
100
AcDbScale
 70
     0
300
3/4" = 1'-0"
140
0.75
141
12.0
290
     0
  0
SCALE
  5
58
102
{ACAD_REACTORS
330
3B
102
}
330
3B
100
AcDbScale
 70
     0
300
1" = 1'-0"
140
1.0
141
12.0
290
     0
  0
SCALE
  5
59
102
{ACAD_REACTORS
330
3B
102
}
330
3B
100
AcDbScale
 70
     0
300
1-1/2" = 1'-0"
140
1.5
141
12.0
290
     0
  0
SCALE
  5
5A
102
{ACAD_REACTORS
330
3B
102
}
330
3B
100
AcDbScale
 70
     0
300
3" = 1'-0"
140
3.0
141
12.0
290
     0
  0
SCALE
  5
5B
102
{ACAD_REACTORS
330
3B
102
}
330
3B
100
AcDbScale
 70
     0
300
6" = 1'-0"
140
6.0
141
12.0
290
     0
  0
SCALE
  5
5C
102
{ACAD_REACTORS
330
3B
102
}
330
3B
100
AcDbScale
 70
     0
300
1'-0" = 1'-0"
140
12.0
141
12.0
290
     0
  0
TABLESTYLE
  5
78
102
{ACAD_REACTORS
330
77
102
}
330
77
100
AcDbTableStyle
  3

 70
     0
 71
     0
 40
1.302083333333333
 41
1.302083333333333
280
     0
281
     0
  7
Standard
140
3.90625
170
     5
 62
     0
 63
     7
421
 16383999
283
     0
 90
      512
 91
        0
  1

274
    -2
284
     1
 64
     0
275
    -2
285
     1
 65
     0
276
    -2
286
     1
 66
     0
277
    -2
287
     1
 67
     0
278
    -2
288
     1
 68
     0
279
    -2
289
     1
 69
     0
  7
Standard
140
3.90625
170
     5
 62
     0
 63
     7
421
 16383999
283
     0
 90
      512
 91
        0
  1

274
    -2
284
     1
 64
     0
275
    -2
285
     1
 65
     0
276
    -2
286
     1
 66
     0
277
    -2
287
     1
 67
     0
278
    -2
288
     1
 68
     0
279
    -2
289
     1
 69
     0
  7
Standard
140
3.90625
170
     5
 62
     0
 63
     7
421
 16383999
283
     0
 90
      512
 91
        0
  1

274
    -2
284
     1
 64
     0
275
    -2
285
     1
 65
     0
276
    -2
286
     1
 66
     0
277
    -2
287
     1
 67
     0
278
    -2
288
     1
 68
     0
279
    -2
289
     1
 69
     0
  0
VISUALSTYLE
  5
2F
102
{ACAD_REACTORS
330
2A
102
}
330
2A
100
AcDbVisualStyle
  2
2dWireframe
 70
     4
 71
     0
 72
     2
 73
     0
 90
        0
 40
-0.6
 41
-30.0
 62
     5
 63
     7
421
 16777215
 74
     1
 91
        4
 64
     7
 65
   257
 75
     1
175
     1
 42
1.0
 92
        0
 66
   257
 43
1.0
 76
     1
 77
     6
 78
     2
 67
     7
 79
     5
170
     0
171
     0
290
     0
174
     0
 93
        1
 44
0.0
173
     0
291
     0
 45
0.0
  0
VISUALSTYLE
  5
31
102
{ACAD_REACTORS
330
2A
102
}
330
2A
100
AcDbVisualStyle
  2
3D Hidden
 70
     6
 71
     1
 72
     2
 73
     2
 90
        0
 40
-0.6
 41
-30.0
 62
     5
 63
     7
421
 16777215
 74
     2
 91
        2
 64
     7
 65
   257
 75
     2
175
     1
 42
40.0
 92
        0
 66
   257
 43
1.0
 76
     1
 77
     6
 78
     2
 67
     7
 79
     3
170
     0
171
     0
290
     0
174
     0
 93
        1
 44
0.0
173
     0
291
     0
 45
0.0
  0
VISUALSTYLE
  5
30
102
{ACAD_REACTORS
330
2A
102
}
330
2A
100
AcDbVisualStyle
  2
3dWireframe
 70
     5
 71
     0
 72
     2
 73
     0
 90
        0
 40
-0.6
 41
-30.0
 62
     5
 63
     7
421
 16777215
 74
     1
 91
        4
 64
     7
 65
   257
 75
     1
175
     1
 42
1.0
 92
        0
 66
   257
 43
1.0
 76
     1
 77
     6
 78
     2
 67
     7
 79
     5
170
     0
171
     0
290
     0
174
     0
 93
        1
 44
0.0
173
     0
291
     0
 45
0.0
  0
VISUALSTYLE
  5
32
102
{ACAD_REACTORS
330
2A
102
}
330
2A
100
AcDbVisualStyle
  2
Basic
 70
     7
 71
     1
 72
     0
 73
     1
 90
        0
 40
-0.6
 41
-30.0
 62
     5
 63
     7
421
 16777215
 74
     0
 91
        4
 64
     7
 65
   257
 75
     1
175
     1
 42
1.0
 92
        8
 66
     7
 43
1.0
 76
     1
 77
     6
 78
     2
 67
     7
 79
     5
170
     0
171
     0
290
     0
174
     0
 93
        1
 44
0.0
173
     0
291
     1
 45
0.0
  0
VISUALSTYLE
  5
36
102
{ACAD_REACTORS
330
2A
102
}
330
2A
100
AcDbVisualStyle
  2
Brighten
 70
    12
 71
     2
 72
     2
 73
     0
 90
        0
 40
-0.6
 41
-30.0
 62
     5
 63
     7
421
 16777215
 74
     1
 91
        4
 64
     7
 65
   257
 75
     1
175
     1
 42
1.0
 92
        8
 66
     7
 43
1.0
 76
     1
 77
     6
 78
     2
 67
     7
 79
     5
170
     0
171
     0
290
     0
174
     0
 93
        1
 44
50.0
173
     0
291
     1
 45
0.0
  0
VISUALSTYLE
  5
3A
102
{ACAD_REACTORS
330
2A
102
}
330
2A
100
AcDbVisualStyle
  2
ColorChange
 70
    16
 71
     2
 72
     2
 73
     3
 90
        0
 40
-0.6
 41
-30.0
 62
     5
 63
     8
421
  8421504
 74
     1
 91
        4
 64
     7
 65
   257
 75
     1
175
     1
 42
1.0
 92
        8
 66
     8
424
  8421504
 43
1.0
 76
     1
 77
     6
 78
     2
 67
     7
 79
     5
170
     0
171
     0
290
     0
174
     0
 93
        1
 44
0.0
173
     0
291
     1
 45
0.0
  0
VISUALSTYLE
  5
34
102
{ACAD_REACTORS
330
2A
102
}
330
2A
100
AcDbVisualStyle
  2
Conceptual
 70
     9
 71
     3
 72
     2
 73
     0
 90
        0
 40
-0.6
 41
-30.0
 62
     5
 63
     7
421
 16777215
 74
     2
 91
        2
 64
     7
 65
   257
 75
     1
175
     1
 42
40.0
 92
        8
 66
     7
 43
1.0
 76
     1
 77
     6
 78
     2
 67
     7
 79
     3
170
     0
171
     0
290
     0
174
     0
 93
        1
 44
0.0
173
     0
291
     0
 45
0.0
  0
VISUALSTYLE
  5
35
102
{ACAD_REACTORS
330
2A
102
}
330
2A
100
AcDbVisualStyle
  2
Dim
 70
    11
 71
     2
 72
     2
 73
     0
 90
        0
 40
-0.6
 41
-30.0
 62
     5
 63
     7
421
 16777215
 74
     1
 91
        4
 64
     7
 65
   257
 75
     1
175
     1
 42
1.0
 92
        8
 66
     7
 43
1.0
 76
     1
 77
     6
 78
     2
 67
     7
 79
     5
170
     0
171
     0
290
     0
174
     0
 93
        1
 44
-50.0
173
     0
291
     1
 45
0.0
  0
VISUALSTYLE
  5
39
102
{ACAD_REACTORS
330
2A
102
}
330
2A
100
AcDbVisualStyle
  2
Facepattern
 70
    15
 71
     2
 72
     2
 73
     0
 90
        0
 40
-0.6
 41
-30.0
 62
     5
 63
     7
421
 16777215
 74
     1
 91
        4
 64
     7
 65
   257
 75
     1
175
     1
 42
1.0
 92
        8
 66
     7
 43
1.0
 76
     1
 77
     6
 78
     2
 67
     7
 79
     5
170
     0
171
     0
290
     0
174
     0
 93
        1
 44
0.0
173
     0
291
     1
 45
0.0
  0
VISUALSTYLE
  5
2B
102
{ACAD_REACTORS
330
2A
102
}
330
2A
100
AcDbVisualStyle
  2
Flat
 70
     0
 71
     2
 72
     1
 73
     1
 90
        2
 40
-0.6
 41
30.0
 62
     5
 63
     7
421
 16777215
 74
     0
 91
        4
 64
     7
 65
   257
 75
     1
175
     1
 42
1.0
 92
        8
 66
     7
 43
1.0
 76
     1
 77
     6
 78
     2
 67
     7
 79
     5
170
     0
171
     0
290
     0
174
     0
 93
       13
 44
0.0
173
     0
291
     1
 45
0.0
  0
VISUALSTYLE
  5
2C
102
{ACAD_REACTORS
330
2A
102
}
330
2A
100
AcDbVisualStyle
  2
FlatWithEdges
 70
     1
 71
     2
 72
     1
 73
     1
 90
        2
 40
-0.6
 41
30.0
 62
     5
 63
     7
421
 16777215
 74
     1
 91
        4
 64
     7
 65
   257
 75
     1
175
     1
 42
1.0
 92
        0
 66
   257
 43
1.0
 76
     1
 77
     6
 78
     2
 67
     7
 79
     5
170
     0
171
     0
290
     0
174
     0
 93
       13
 44
0.0
173
     0
291
     1
 45
0.0
  0
VISUALSTYLE
  5
2D
102
{ACAD_REACTORS
330
2A
102
}
330
2A
100
AcDbVisualStyle
  2
Gouraud
 70
     2
 71
     2
 72
     2
 73
     1
 90
        2
 40
-0.6
 41
30.0
 62
     5
 63
     7
421
 16777215
 74
     0
 91
        4
 64
     7
 65
   257
 75
     1
175
     1
 42
1.0
 92
        0
 66
     7
 43
1.0
 76
     1
 77
     6
 78
     2
 67
     7
 79
     5
170
     0
171
     0
290
     0
174
     0
 93
       13
 44
0.0
173
     0
291
     1
 45
0.0
  0
VISUALSTYLE
  5
2E
102
{ACAD_REACTORS
330
2A
102
}
330
2A
100
AcDbVisualStyle
  2
GouraudWithEdges
 70
     3
 71
     2
 72
     2
 73
     1
 90
        2
 40
-0.6
 41
30.0
 62
     5
 63
     7
421
 16777215
 74
     1
 91
        4
 64
     7
 65
   257
 75
     1
175
     1
 42
1.0
 92
        0
 66
   257
 43
1.0
 76
     1
 77
     6
 78
     2
 67
     7
 79
     5
170
     0
171
     0
290
     0
174
     0
 93
       13
 44
0.0
173
     0
291
     1
 45
0.0
  0
VISUALSTYLE
  5
38
102
{ACAD_REACTORS
330
2A
102
}
330
2A
100
AcDbVisualStyle
  2
Linepattern
 70
    14
 71
     2
 72
     2
 73
     0
 90
        0
 40
-0.6
 41
-30.0
 62
     5
 63
     7
421
 16777215
 74
     1
 91
        4
 64
     7
 65
   257
 75
     7
175
     7
 42
1.0
 92
        8
 66
     7
 43
1.0
 76
     1
 77
     6
 78
     2
 67
     7
 79
     5
170
     0
171
     0
290
     0
174
     0
 93
        1
 44
0.0
173
     0
291
     1
 45
0.0
  0
VISUALSTYLE
  5
33
102
{ACAD_REACTORS
330
2A
102
}
330
2A
100
AcDbVisualStyle
  2
Realistic
 70
     8
 71
     2
 72
     2
 73
     0
 90
        0
 40
-0.6
 41
-30.0
 62
     5
 63
     7
421
 16777215
 74
     1
 91
        0
 64
     7
 65
   257
 75
     1
175
     1
 42
1.0
 92
        8
 66
     8
424
  7895160
 43
1.0
 76
     1
 77
     6
 78
     2
 67
     7
 79
     5
170
     0
171
     0
290
     0
174
     0
 93
       13
 44
0.0
173
     0
291
     0
 45
0.0
  0
VISUALSTYLE
  5
37
102
{ACAD_REACTORS
330
2A
102
}
330
2A
100
AcDbVisualStyle
  2
Thicken
 70
    13
 71
     2
 72
     2
 73
     0
 90
        0
 40
-0.6
 41
-30.0
 62
     5
 63
     7
421
 16777215
 74
     1
 91
        4
 64
     7
 65
   257
 75
     1
175
     1
 42
1.0
 92
       12
 66
     7
 43
1.0
 76
     1
 77
     6
 78
     2
 67
     7
 79
     5
170
     0
171
     0
290
     0
174
     0
 93
        1
 44
0.0
173
     0
291
     1
 45
0.0
  0
ENDSEC
  0
SECTION
  2
THUMBNAILIMAGE
 90
    16364
310
28000000B40000005500000001000800000000000000000000000000000000000000000000000000FFFFFF000000FF0000FFFF0000FF0000FFFF0000FF000000FF00FF000000000080808000C0C0C0000000FF007F7FFF000000A5005252A50000007F003F3F7F0000004C0026264C000000260013132600003FFF007F9FFF
310
000029A5005267A500001F7F003F4F7F0000134C00262F4C000009260013172600007FFF007FBFFF000052A500527CA500003F7F003F5F7F0000264C0026394C0000132600131C260000BFFF007FDFFF00007CA5005291A500005F7F003F6F7F0000394C0026424C00001C26001321260000FFFF007FFFFF0000A5A50052A5
310
A500007F7F003F7F7F00004C4C00264C4C00002626001326260000FFBF007FFFDF0000A57C0052A59100007F5F003F7F6F00004C3900264C420000261C001326210000FF7F007FFFBF0000A5520052A57C00007F3F003F7F5F00004C2600264C39000026130013261C0000FF3F007FFF9F0000A5290052A56700007F1F003F
310
7F4F00004C1300264C2F00002609001326170000FF00007FFF7F0000A5000052A55200007F00003F7F3F00004C0000264C260000260000132613003FFF00009FFF7F0029A5000067A552001F7F00004F7F3F00134C00002F4C260009260000172613007FFF0000BFFF7F0052A500007CA552003F7F00005F7F3F00264C0000
310
394C2600132600001C261300BFFF0000DFFF7F007CA5000091A552005F7F00006F7F3F00394C0000424C26001C26000021261300FFFF0000FFFF7F00A5A50000A5A552007F7F00007F7F3F004C4C00004C4C26002626000026261300FFBF0000FFDF7F00A57C0000A59152007F5F00007F6F3F004C3900004C422600261C00
310
0026211300FF7F0000FFBF7F00A5520000A57C52007F3F00007F5F3F004C2600004C39260026130000261C1300FF3F0000FF9F7F00A5290000A56752007F1F00007F4F3F004C1300004C2F26002609000026171300FF000000FF7F7F00A5000000A55252007F0000007F3F3F004C0000004C2626002600000026131300FF00
310
3F00FF7F9F00A5002900A55267007F001F007F3F4F004C0013004C262F002600090026131700FF007F00FF7FBF00A5005200A5527C007F003F007F3F5F004C0026004C2639002600130026131C00FF00BF00FF7FDF00A5007C00A55291007F005F007F3F6F004C0039004C26420026001C0026132100FF00FF00FF7FFF00A5
310
00A500A552A5007F007F007F3F7F004C004C004C264C002600260026132600BF00FF00DF7FFF007C00A5009152A5005F007F006F3F7F0039004C0042264C001C002600211326007F00FF00BF7FFF005200A5007C52A5003F007F005F3F7F0026004C0039264C00130026001C1326003F00FF009F7FFF002900A5006752A500
310
1F007F004F3F7F0013004C002F264C000900260017132600000000002D2D2D005B5B5B0089898900B7B7B700B3B3B30007070707070707070707070707070707070707070707070707070707070707070707070707070707070707070707070707070707070707070707070707070707070707070707070707070707070707
310
07070707070707070707070707070707070707070707070707070707070707070707070707070707070707070707070707070707070707070707070707070707070707070707070707070707070707070707070707070707070707070707070707070707070707070707070707070707070707070707070707070707070707
310
07070707070707070707070707070707070707070707070707070707070707070707070707070707070707070707070707070707070707070707070707070707070707070707070707070707070707070707070707070707070707070707070707070707070707070707070707070707070707070707070707070707070707
310
07070707070707070707070707070707070707070707070707070707070707070707070707070707070707070707070707070707070707070707070707070707070707070707070707070707070707070707070707070707070707070707070707070707070707070707070707070707070707070707070707070707070707
310
07070707070707070707070707070707070707070707070707070707070707070707070707070707070707070707070707070707070707070707070707070707070707070707070707070707070707070707070707070707070707070707070707070707070707070707070707070707070707070707070707070707070707
310
07070707070707070707070707070707070707070707070707070707070707070707070707070707070707070707070707070707070707070707070707070707070707070707070707070707070707070707070707070707070707070707070707070707070707070707070707070707070707070707070707070707070707
310
07070707070707070707070707070707070707070707070707070707070707070707070707070707070707070707070707070707070707070707070707070707070707070707070707070707070707070707070707070707070707070707070707070707070707070707070707070707070707070707070707070707070707
310
07070707070707070707070707070707070707070707070707070707070707070707070707070707070707070707070707070707070707070707070707070707070707070707070707070707070707070707070707070707070707070707070707070707070707070707070707070707070707070707070707070707070707
310
07070707070707070707070707070707070707070707070707070707070707070707070707070707070707070707070707070707070707070707070707070707070707070707070707070707070707070707070707070707070707070707070707070707070707070707070707070707070707070707070707070707070707
310
07070707070707070707070707070707070707070707070707070707070707070707070707070707070707070707070707070707070707070707070707070707070707070707070707070707070707070707070707070707070707070707070707070707070707070707070707070707070707070707070707070707070707
310
07070707070707070707070707070707070707070707070707070707070707070707070707070707070707070707070707070707070707070707070707070707070707070707070707070707070707070707070707070707070707070707070707070707070707070707070707070707070707070707070707070707070707
310
07070707070707070707070707070707070707070707070707070707070707070707070707070707070707070707070707070707070707070707070707070707070707070707070707070707070707070707070707070707070707070707070707070707070707070707070707070707070707070707070707070707070707
310
07070707070707070707070707070707070707070707070707070707070707070707070707070707070707070707070707070707070707070707070707070707070707070707070707070707070707070707070707070707070707070707070707070707070707070707070707070707070707070707070707070707070707
310
07070707070707070707070707070707070707070707070707070707070707070707070707070707070707070707070707070707070707070707070707070707070707070707070707070707070707070707070707070707070707070707070707070707070707070707070707070707070707070707070707070707070707
310
07070707070707070707070707070707070707070707070707070707070707070707070707070707070707070707070707070707070707070707070707070707070707070707070707070707070707070707070707070707070707070707070707070707070707070707070707070707070707070707070707070707070707
310
07070707070707070707070707070707070707070707070707070707070707070707070707070707070707070707070707070707070707070707070707070707070707070707070707070707070707070707070707070707070707070707070707070707070707070707070707070707070707070707070707070707070707
310
07070707070707070707070707070707070707070707070707070707070707070707070707070707070707070707070707070707070707070707070707070707070707070707070707070707070707070707070707070707070707070707070707070707070707070707070707070707070707070707070707070707070707
310
07070707070707070707070707070707070707070707070707070707070707070707070707070707070707070707070707070707070707070707070707070707070707070707070707070707070707070707070707070707070707070707070707070707070707070707070707070707070707070707070707070707070707
310
07070707070707070707070707070707070707070707070707070707070707070707070707070707070707070707070707070707070707070707070707070707070707070707070707070707070707070707070707070707070707070707070707070707070707070707070707070707070707070707070707070707070707
310
07070707070707070707070707070707070707070707070707070707070707070707070707070707070707070707070707070707070707070707070707070707070707070707070707070707070707070707070707070707070707070707070707070707070707070707070707070707070707070707070707070707070707
310
07070707070707070707070707070707070707070707070707070707070707070707070707070707070707070707070707070707070707070707070707070707070707070707070707070707070707070707070707070707070707070707070707070707070707070707070707070707070707070707070707070707070707
310
07070707070707070707070707070707070707070707070707070707070707070707070707070707070707070707070707070707070707070707070707070707070707070707070707070707070707070707070707070707070707070707070707070707070707070707070707070707070707070707070707070707070707
310
07070707070707070707070707070707070707070707070707070707070707070707070707070707070707070707070707070707070707070707070707070707070707070707070707070707070707070707070707070707070707070707070707070707070707070707070707070707070707070707070707070707070707
310
07070707070707070707070707070707070707070707070707070707070707070707070707070707070707070707070707070707070707070707070707070707070707070707070707070707070707070707070707070707070707070707070707070707070707070707070707070707070707070707070707070707070707
310
07070707070707070707070707070707070707070707070707070707070707070707070707070707070707070707070707070707070707070707070707070707070707070707070707070707070707070707070707070707070707070707070707070707070707070707070707070707070707070707070707070707070707
310
07070707070707070707070707070707070707070707070707070707070707070707070707070707070707070707070707070707070707070707070707070707070707070707070707070707070707070707070707070707070707070707070707070707070707070707070707070707070707070707070707070707070707
310
07070707070707070707070707070707070707070707070707070707070707070707070707070707070707070707070707070707070707070707070707070707070707070707070707070707070707070707070707070707070707070707070707070707070707070707070707070707070707070707070707070707070707
310
07070707070707070707070707070707070707070707070707070707070707070707070707070707070707070707070707070707070707070707070707070707070707070707070707070707070707070707070707070707070707070707070707070707070707070707070707070707070707070707070707070707070707
310
07070707070707070707070707070707070707070707070707070707070707070707070707070707070707070707070707070707070707070707070707070707070707070707070707070707070707070707070707070707070707070707070707070707070707070707070707070707070707070707070707070707070707
310
07070707070707070707070707070707070707070707070707070707070707070707070707070707070707070707070707070707070707070707070707070707070707070707070707070707070707070707070707070707070707070707070707070707070707070707070707070707070707070707070707070707070707
310
07070707070707070707070707070707070707070707070707070707070707070707070707070707070707070707070707070707070707070707070707070707070707070707070707070707070707070707070707070707070707070707070707070707070707070707070707070707070707070707070707070707070707
310
07070707070707070707070707070707070707070707070707070707070707070707070707070707070707070707070707070707070707070707070707070707070707070707070707070707070707070707070707070707070707070707070707070707070707070707070707070707070707070707070707070707070707
310
07070707070707070707070707070707070707070707070707070707070707070707070707070707070707070707070707070707070707070707070707070707070707070707070707070707070707070707070707070707070707070707070707070707070707070707070707070707070707070707070707070707070707
310
07070707070707070707070707070707070707070707070707070707070707070707070707070707070707070707070707070707070707070707070707070707070707070707070707070707070707070707070707070707070707070707070707070707070707070707070707070707070707070707070707070707070707
310
07070707070707070707070707070707070707070707070707070707070707070707070707070707070707070707070707070707070707070707070707070707070707070707070707070707070707070707070707070707070707070707070707070707070707070707070707070707070707070707070707070707070707
310
07070707070707070707070707070707070707070707070707070707070707070707070707070707070707070707070707070707070707070707070707070707070707070707070707070707070707070707070707070707070707070707070707070707070707070707070707070707070707070707070707070707070707
310
07070707070707070707070707070707070707070707070707070707070707070707070707070707070707070707070707070707070707070707070707070707070707070707070707070707070707070707070707070707070707070707070707070707070707070707070707070707070707070707070707070707070707
310
07070707070707070707070707070707070707070707070707070707070707070707070707070707070707070707070707070707070707070707070707070707070707070707070707070707070707070707070707070707070707070707070707070707070707070707070707070707070707070707070707070707070707
310
07070707070707070707070707070707070707070707070707070707070707070707070707070707070707070707070707070707070707070707070707070707070707070707070707070707070707070707070707070707070707070707070707070707070707070707070707070707070707070707070707070707070707
310
07070707070707070707070707070707070707070707070707070707070707070707070707070707070707070707070707070707070707070707070707070707070707070707070707070707070707070707070707070707070707070707070707070707070707070707070707070707070707070707070707070707070707
310
07070707070707070707070707070707070707070707070707070707070707070707070707070707070707070707070707070707070707070707070707070707070707070707070707070707070707070707070707070707070707070707070707070707070707070707070707070707070707070707070707070707070707
310
07070707070707070707070707070707070707070707070707070707070707070707070707070707070707070707070707070707070707070707070707070707070707070707070707070707070707070707070707070707070707070707070707070707070707070707070707070707070707070707070707070707070707
310
07070707070707070707070707070707070707070707070707070707070707070707070707070707070707070707070707070707070707070707070707070707070707070707070707070707070707070707070707070707070707070707070707070707070707070707070707070707070707070707070707070707070707
310
07070707070707070707070707070707070707070707070707070707070707070707070707070707070707070707070707070707070707070707070707070707070707070707070707070707070707070707070707070707070707070707070707070707070707070707070707070707070707070707070707070707070707
310
07070707070707070707070707070707070707070707070707070707070707070707070707070707070707070707070707070707070707070707070707070707070707070707070707070707070707070707070707070707070707070707070707070707070707070707070707070707070707070707070707070707070707
310
07070707070707070707070707070707070707070707070707070707070707070707070707070707070707070707070707070707070707070707070707070707070707070707070707070707070707070707070707070707070707070707070707070707070707070707070707070707070707070707070707070707070707
310
07070707070707070707070707070707070707070707070707070707070707070707070707070707070707070707070707070707070707070707070707070707070707070707070707070707070707070707070707070707070707070707070707070707070707070707070707070707070707070707070707070707070707
310
07070707070707070707070707070707070707070707070707070707070707070707070707070707070707070707070707070707070707070707070707070707070707070707070707070707070707070707070707070707070707070707070707070707070707070707070707070707070707070707070707070707070707
310
07070707070707070707070707070707070707070707070707070707070707070707070707070707070707070707070707070707070707070707070707070707070707070707070707070707070707070707070707070707070707070707070707070707070707070707070707070707070707070707070707070707070707
310
07070707070707070707070707070707070707070707070707070707070707070707070707070707070707070707070707070707070707070707070707070707070707070707070707070707070707070707070707070707070707070707070707070707070707070707070707070707070707070707070707070707070707
310
07070707070707070707070707070707070707070707070707070707070707070707070707070707070707070707070707070707070707070707070707070707070707070707070707070707070707070707070707070707070707070707070707070707070707070707070707070707070707070707070707070707070707
310
07070707070707070707070707070707070707070707070707070707070707070707070707070707070707070707070707070707070707070707070707070707070707070707070707070707070707070707070707070707070707070707070707070707070707070707070707070707070707070707070707070707070707
310
07070707070707070707070707070707070707070707070707070707070707070707070707070707070707070707070707070707070707070707070707070707070707070707070707070707070707070707070707070707070707070707070707070707070707070707070707070707070707070707070707070707070707
310
07070707070707070707070707070707070707070707070707070707070707070707070707070707070707070707070707070707070707070707070707070707070707070707070707070707070707070707070707070707070707070707070707070707070707070707070707070707070707070707070707070707070707
310
07070707070707070707070707070707070707070707070707070707070707070707070707070707070707070707070707070707070707070707070707070707070707070707070707070707070707070707070707070707070707070707070707070707070707070707070707070707070707070707070707070707070707
310
07070707070707070707070707070707070707070707070707070707070707070707070707070707070707070707070707070707070707070707070707070707070707070707070707070707070707070707070707070707070707070707070707070707070707070707070707070707070707070707070707070707070707
310
07070707070707070707070707070707070707070707070707070707070707070707070707070707070707070707070707070707070707070707070707070707070707070707070707070707070707070707070707070707070707070707070707070707070707070707070707070707070707070707070707070707070707
310
07070707070707070707070707070707070707070707070707070707070707070707070707070707070707070707070707070707070707070707070707070707070707070707070707070707070707070707070707070707070707070707070707070707070707070707070707070707070707070707070707070707070707
310
07070707070707070707070707070707070707070707070707070707070707070707070707070707070707070707070707070707070707070707070707070707070707070707070707070707070707070707070707070707070707070707070707070707070707070707070707070707070707070707070707070707070707
310
07070707070707070707070707070707070707070707070707070707070707070707070707070707070707070707070707070707070707070707070707070707070707070707070707070707070707070707070707070707070707070707070707070707070707070707070707070707070707070707070707070707070707
310
07070707070707070707070707070707070707070707070707070707070707070707070707070707070707070707070707070707070707070707070707070707070707070707070707070707070707070707070707070707070707070707070707070707070707070707070707070707070707070707070707070707070707
310
07070707070707070707070707070707070707070707070707070707070707070707070707070707070707070707070707070707070707070707070707070707070707070707070707070707070707070707070707070707070707070707070707070707070707070707070707070707070707070707070707070707070707
310
07070707070707070707070707070707070707070707070707070707070707070707070707070707070707070707070707070707070707070707070707070707070707070707070707070707070707070707070707070707070707070707070707070707070707070707070707070707070707070707070707070707070707
310
07070707070707070707070707070707070707070707070707070707070707070707070707070707070707070707070707070707070707070707070707070707070707070707070707070707070707070707070707070707070707070707070707070707070707070707070707070707070707070707070707070707070707
310
07070707070707070707070707070707070707070707070707070707070707070707070707070707070707070707070707070707070707070707070707070707070707070707070707070707070707070707070707070707070707070707070707070707070707070707070707070707070707070707070707070707070707
310
07070707070707070707070707070707070707070707070707070707070707070707070707070707070707070707070707070707070707070707070707070707070707070707070707070707070707070707070707070707070707070707070707070707070707070707070707070707070707070707070707070707070707
310
07070707070707070707070707070707070707070707070707070707070707070707070707070707070707070707070707070707070707070707070707070707070707070707070707070707070707070707070707070707070707070707070707070707070707070707070707070707070707070707070707070707070707
310
07070707070707070707070707070707070707070707070707070707070707070707070707070707070707070707070707070707070707070707070707070707070707070707070707070707070707070707070707070707070707070707070707070707070707070707070707070707070707070707070707070707070707
310
07070707070707070707070707070707070707070707070707070707070707070707070707070707070707070707070707070707070707070707070707070707070707070707070707070707070707070707070707070707070707070707070707070707070707070707070707070707070707070707070707070707070707
310
07070707070707070707070707070707070707070707070707070707070707070707070707070707070707070707070707070707070707070707070707070707070707070707070707070707070707070707070707070707070707070707070707070707070707070707070707070707070707070707070707070707070707
310
07070707070707070707070707070707070707070707070707070707070707070707070707070707070707070707070707070707070707070707070707070707070707070707070707070707070707070707070707070707070707070707070707070707070707070707070707070707070707070707070707070707070707
310
07070707070707070707070707070707070707070707070707070707070707070707070707070707070707070707070707070707070707070707070707070707070707070707070707070707070707070707070707070707070707070707070707070707070707070707070707070707070707070707070707070707070707
310
07070707070707070707070707070707070707070707070707070707070707070707070707070707070707070707070707070707070707070707070707070707070707070707070707070707070707070707070707070707070707070707070707070707070707070707070707070707070707070707070707070707070707
310
07070707070707070707070707070707070707070707070707070707070707070707070707070707070707070707070707070707070707070707070707070707070707070707070707070707070707070707070707070707070707070707070707070707070707070707070707070707070707070707070707070707070707
310
07070707070707070707070707070707070707070707070707070707070707070707070707070707070707070707070707070707070707070707070707070707070707070707070707070707070707070707070707070707070707070707070707070707070707070707070707070707070707070707070707070707070707
310
07070707070707070707070707070707070707070707070707070707070707070707070707070707070707070707070707070707070707070707070707070707070707070707070707070707070707070707070707070707070707070707070707070707070707070707070707070707070707070707070707070707070707
310
07070707070707070707070707070707070707070707070707070707070707070707070707070707070707070707070707070707070707070707070707070707070707070707070707070707070707070707070707070707070707070707070707070707070707070707070707070707070707070707070707070707070707
310
07070707070707070707070707070707070707070707070707070707070707070707070707070707070707070707070707070707070707070707070707070707070707070707070707070707070707070707070707070707070707070707070707070707070707070707070707070707070707070707070707070707070707
310
07070707070707070707070707070707070707070707070707070707070707070707070707070707070707070707070707070707070707070707070707070707070707070707070707070707070707070707070707070707070707070707070707070707070707070707070707070707070707070707070707070707070707
310
07070707070707070707070707070707070707070707070707070707070707070707070707070707070707070707070707070707070707070707070707070707070707070707070707070707070707070707070707070707070707070707070707070707070707070707070707070707070707070707070707070707070707
310
07070707070707070707070707070707070707070707070707070707070707070707070707070707070707070707070707070707070707070707070707070707070707070707070707070707070707070707070707070707070707070707070707070707070707070707070707070707070707070707070707070707070707
310
07070707070707070707070707070707070707070707070707070707070707070707070707070707070707070707070707070707070707070707070707070707070707070707070707070707070707070707070707070707070707070707070707070707070707070707070707070707070707070707070707070707070707
310
07070707070707070707070707070707070707070707070707070707070707070707070707070707070707070707070707070707070707070707070707070707070707070707070707070707070707070707070707070707070707070707070707070707070707070707070707070707070707070707070707070707070707
310
07070707070707070707070707070707070707070707070707070707070707070707070707070707070707070707070707070707070707070707070707070707070707070707070707070707070707070707070707070707070707070707070707070707070707070707070707070707070707070707070707070707070707
310
07070707070707070707070707070707070707070707070707070707070707070707070707070707070707070707070707070707070707070707070707070707070707070707070707070707070707070707070707070707070707070707070707070707070707070707070707070707070707070707070707070707070707
310
07070707070707070707070707070707070707070707070707070707070707070707070707070707070707070707070707070707070707070707070707070707070707070707070707070707070707070707070707070707070707070707070707070707070707070707070707070707070707070707070707070707070707
310
07070707070707070707070707070707070707070707070707070707070707070707070707070707070707070707070707070707070707070707070707070707070707070707070707070707070707070707070707070707070707070707070707070707070707070707070707070707070707070707070707070707070707
310
07070707070707070707070707070707070707070707070707070707070707070707070707070707070707070707070707070707070707070707070707070707070707070707070707070707070707070707070707070707070707070707070707070707070707070707070707070707070707070707070707070707070707
310
07070707070707070707070707070707070707070707070707070707070707070707070707070707070707070707070707070707070707070707070707070707070707070707070707070707070707070707070707070707070707070707070707070707070707070707070707070707070707070707070707070707070707
310
07070707070707070707070707070707070707070707070707070707070707070707070707070707070707070707070707070707070707070707070707070707070707070707070707070707070707070707070707070707070707070707070707070707070707070707070707070707070707070707070707070707070707
310
07070707070707070707070707070707070707070707070707070707070707070707070707070707070707070707070707070707070707070707070707070707070707070707070707070707070707070707070707070707070707070707070707070707070707070707070707070707070707070707070707070707070707
310
07070707070707070707070707070707070707070707070707070707070707070707070707070707070707070707070707070707070707070707070707070707070707070707070707070707070707070707070707070707070707070707070707070707070707070707070707070707070707070707070707070707070707
310
07070707070707070707070707070707070707070707070707070707070707070707070707070707070707070707070707070707070707070707070707070707070707070707070707070707070707070707070707070707070707070707070707070707070707070707070707070707070707070707070707070707070707
310
07070707070707070707070707070707070707070707070707070707070707070707070707070707070707070707070707070707070707070707070707070707070707070707070707070707070707070707070707070707070707070707070707070707070707070707070707070707070707070707070707070707070707
310
07070707070707070707070707070707070707070707070707070707070707070707070707070707070707070707070707070707070707070707070707070707070707070707070707070707070707070707070707070707070707070707070707070707070707070707070707070707070707070707070707070707070707
310
07070707070707070707070707070707070707070707070707070707070707070707070707070707070707070707070707070707070707070707070707070707070707070707070707070707070707070707070707070707070707070707070707070707070707070707070707070707070707070707070707070707070707
310
07070707070707070707070707070707070707070707070707070707070707070707070707070707070707070707070707070707070707070707070707070707070707070707070707070707070707070707070707070707070707070707070707070707070707070707070707070707070707070707070707070707070707
310
07070707070707070707070707070707070707070707070707070707070707070707070707070707070707070707070707070707070707070707070707070707070707070707070707070707070707070707070707070707070707070707070707070707070707070707070707070707070707070707070707070707070707
310
07070707070707070707070707070707070707070707070707070707070707070707070707070707070707070707070707070707070707070707070707070707070707070707070707070707070707070707070707070707070707070707070707070707070707070707070707070707070707070707070707070707070707
310
07070707070707070707070707070707070707070707070707070707070707070707070707070707070707070707070707070707070707070707070707070707070707070707070707070707070707070707070707070707070707070707070707070707070707070707070707070707070707070707070707070707070707
310
07070707070707070707070707070707070707070707070707070707070707070707070707070707070707070707070707070707070707070707070707070707070707070707070707070707070707070707070707070707070707070707070707070707070707070707070707070707070707070707070707070707070707
310
07070707070707070707070707070707070707070707070707070707070707070707070707070707070707070707070707070707070707070707070707070707070707070707070707070707070707070707070707070707070707070707070707070707070707070707070707070707070707070707070707070707070707
310
07070707070707070707070707070707070707070707070707070707070707070707070707070707070707070707070707070707070707070707070707070707070707070707070707070707070707070707070707070707070707070707070707070707070707070707070707070707070707070707070707070707070707
310
07070707070707070707070707070707070707070707070707070707070707070707070707070707070707070707070707070707070707070707070707070707070707070707070707070707070707070707070707070707070707070707070707070707070707070707070707070707070707070707070707070707070707
310
07070707070707070707070707070707070707070707070707070707070707070707070707070707070707070707070707070707070707070707070707070707070707070707070707070707070707070707070707070707070707070707070707070707070707070707070707070707070707070707070707070707070707
310
07070707070707070707070707070707070707070707070707070707070707070707070707070707070707070707070707070707070707070707070707070707070707070707070707070707070707070707070707070707070707070707070707070707070707070707070707070707070707070707070707070707070707
310
07070707070707070707070707070707070707070707070707070707070707070707070707070707070707070707070707070707070707070707070707070707070707070707070707070707070707070707070707070707070707070707070707070707070707070707070707070707070707070707070707070707070707
310
07070707070707070707070707070707070707070707070707070707070707070707070707070707070707070707070707070707070707070707070707070707070707070707070707070707070707070707070707070707070707070707070707070707070707070707070707070707070707070707070707070707070707
310
07070707070707070707070707070707070707070707070707070707070707070707070707070707070707070707070707070707070707070707070707070707070707070707070707070707070707070707070707070707070707070707070707070707070707070707070707070707070707070707070707070707070707
310
07070707070707070707070707070707070707070707070707070707070707070707070707070707070707070707070707070707070707070707070707070707070707070707070707070707070707070707070707070707070707070707070707070707070707070707070707070707070707070707070707070707070707
310
07070707070707070707070707070707070707070707070707070707070707070707070707070707070707070707070707070707070707070707070707070707070707070707070707070707070707070707070707070707070707070707070707070707070707070707070707070707070707070707070707070707070707
310
07070707070707070707070707070707070707070707070707070707070707070707070707070707070707070707070707070707070707070707070707070707070707070707070707070707070707070707070707070707070707070707070707070707070707070707070707070707070707070707070707070707070707
310
07070707070707070707070707070707070707070707070707070707070707070707070707070707070707070707070707070707070707070707070707070707070707070707070707070707070707070707070707070707070707070707070707070707070707070707070707070707070707070707070707070707070707
310
07070707070707070707070707070707070707070707070707070707070707070707070707070707070707070707070707070707070707070707070707070707070707070707070707070707070707070707070707070707070707070707070707070707070707070707070707070707070707070707070707070707070707
310
07070707070707070707070707070707070707070707070707070707070707070707070707070707070707070707070707070707070707070707070707070707070707070707070707070707070707070707070707070707070707070707070707070707070707070707070707070707070707070707070707070707070707
310
07070707070707070707070707070707070707070707070707070707070707070707070707070707070707070707070707070707070707070707070707070707070707070707070707070707070707070707070707070707070707070707070707070707070707070707070707070707070707070707070707070707070707
310
07070707070707070707070707070707070707070707070707070707070707070707070707070707070707070707070707070707070707070707070707070707070707070707070707070707070707070707070707070707070707070707070707070707070707070707070707070707070707070707070707070707070707
310
07070707070707070707070707070707070707070707070707070707070707070707070707070707070707070707070707070707070707070707070707070707070707070707070707070707070707070707070707070707070707070707070707070707070707070707070707070707070707070707070707070707070707
310
07070707070707070707070707070707070707070707070707070707070707070707070707070707070707070707070707070707070707070707070707070707070707070707070707070707070707070707070707070707070707070707070707070707070707070707070707070707070707070707070707070707070707
310
07070707070707070707070707070707070707070707070707070707070707070707070707070707070707070707070707070707070707070707070707070707070707070707070707070707070707070707070707070707070707070707070707070707070707070707070707070707070707070707070707070707070707
310
070707070707070707070707070707070707070707070707070707070707070707070707070707070707070707070707070707070707070707070707070707070707070707070707070707070707070707070707070707070707070707070707070707070707070707070707
  0
ENDSEC
  0
EOF
